<?xml version="1.0" standalone="no"?>
<!DOCTYPE svg PUBLIC "-//W3C//DTD SVG 1.1//EN" "http://www.w3.org/Graphics/SVG/1.1/DTD/svg11.dtd" >
<svg xmlns="http://www.w3.org/2000/svg" xmlns:xlink="http://www.w3.org/1999/xlink" version="1.1">
<metadata></metadata>
<defs>
<font id="magnolia_scriptregular" horiz-adv-x="1431" >
<font-face units-per-em="2048" ascent="1638" descent="-410" />
<missing-glyph horiz-adv-x="450" />
<glyph unicode="&#xfb01;" horiz-adv-x="1091" d="M-389 -600q0 19 4 33.5t8 18.5l4 5q27 -26 72 -26q60 0 97.5 48.5t58.5 166.5l221 1276h-131q-15 16 -15 43t18.5 43t51.5 16h94l35 201q43 251 157 363t296 112q156 0 243.5 -74t87.5 -201q0 -94 -50.5 -155.5t-129.5 -61.5q-21 0 -39 5t-28.5 12t-18.5 14.5t-11 12.5 l-3 5q3 3 9 9.5t20.5 27.5t25.5 43t20 56t9 67q0 137 -103 137q-160 0 -208 -286l-50 -287h340q113 0 142.5 -45t9.5 -158l-80 -463q-29 -180 88 -180q55 0 115.5 48.5t99.5 129.5q21 0 32 -13t7 -40q-6 -34 -26.5 -73.5t-54.5 -80t-76 -74t-97.5 -54.5t-112.5 -21 q-108 0 -173.5 67.5t-65.5 188.5q0 90 18 195l66 378q5 31 10 93h-260l-225 -1278q-34 -194 -117 -277.5t-219 -83.5q-77 0 -121.5 33t-44.5 84z" />
<glyph unicode="&#xfb02;" horiz-adv-x="1103" d="M-389 -600q0 19 4 33.5t8 18.5l4 5q27 -26 72 -26q60 0 97.5 48.5t58.5 166.5l221 1276h-131q-15 16 -15 43t18.5 43t51.5 16h94l35 201q43 250 158 362.5t295 112.5q421 0 342 -453l-156 -889q-15 -89 8.5 -134.5t79.5 -45.5q63 0 125.5 48t101.5 130q21 0 32 -13t7 -40 q-8 -42 -40.5 -93.5t-81 -98.5t-117.5 -79t-140 -32q-108 0 -173.5 67.5t-65.5 188.5q0 90 18 195l131 755q33 200 33 248q0 78 -26 110.5t-78 32.5q-54 0 -102 -67.5t-74 -218.5l-50 -287h160q14 -16 14 -43t-18 -43t-51 -16h-123l-225 -1278q-34 -194 -117 -277.5 t-219 -83.5q-77 0 -121.5 33t-44.5 84z" />
<glyph horiz-adv-x="0" />
<glyph horiz-adv-x="682" />
<glyph unicode=" "  horiz-adv-x="450" />
<glyph unicode="&#x09;" horiz-adv-x="450" />
<glyph unicode="&#xa0;" horiz-adv-x="450" />
<glyph unicode="!" horiz-adv-x="606" d="M41 102q0 62 42 105t101 43q58 0 92.5 -36.5t34.5 -92.5q0 -57 -41 -99t-106 -42q-55 0 -89 34t-34 88zM141 432q0 48 11 158l84 733q8 68 8 121q0 23 -1.5 41t-2.5 25l-2 6q32 20 116 20q87 0 128.5 -30.5t41.5 -96.5q0 -37 -16 -96l-207 -727q-20 -72 -29.5 -131 t-8.5 -82l1 -23q-18 -14 -51 -14q-72 0 -72 96z" />
<glyph unicode="&#x22;" horiz-adv-x="745" d="M143 1024q35 264 35 442l-2 41q62 29 160 29q74 0 74 -76q0 -68 -50.5 -214t-101.5 -222h-115zM479 1024q35 264 35 442l-2 41q62 29 160 29q73 0 73 -76q0 -68 -50 -214t-101 -222h-115z" />
<glyph unicode="#" horiz-adv-x="1288" d="M61 508q0 131 170 131h84l52 293h-99q-36 0 -64 -6t-38 -12l-10 -5q-17 13 -17 52q0 63 51.5 105t141.5 42h65l49 283q11 64 17 114t6 68v18q23 15 68 15q65 0 91 -23t24.5 -72.5t-15.5 -128.5l-47 -274h219l49 283q11 64 17 114t6 68v18q22 15 67 15q65 0 91.5 -23 t25 -72.5t-15.5 -128.5l-48 -274h97q36 0 64 5.5t38 10.5l10 6q17 -12 17 -51q0 -63 -51.5 -105t-141.5 -42h-63l-51 -293h94q36 0 64 4.5t38 8.5l10 5q17 -14 17 -53q0 -131 -170 -131h-82l-49 -283q-11 -64 -17 -114t-6 -68v-18q-22 -15 -67 -15q-65 0 -91.5 23t-25 72.5 t15.5 128.5l47 274h-219l-49 -283q-11 -64 -16.5 -114t-5.5 -68v-18q-23 -15 -68 -15q-65 0 -91 23t-24.5 72.5t15.5 128.5l47 274h-97q-36 0 -64 -4.5t-38 -8.5l-10 -5q-17 14 -17 53zM508 639h219l51 293h-219z" />
<glyph unicode="$" horiz-adv-x="1224" d="M41 322q0 104 49 162.5t125 58.5q44 0 76.5 -13.5t43.5 -27.5l11 -13q-3 -2 -8 -6.5t-17 -20t-21.5 -34t-17.5 -48t-8 -61.5q0 -68 35 -117.5t99 -72.5l94 549l-90 59q-125 82 -180.5 167.5t-55.5 195.5q0 109 56.5 204t166 158t250.5 72q12 67 18 118.5t7 69.5v19 q22 14 67 14q65 0 90 -22t25 -74q0 -45 -16 -133q71 -12 131 -38t108.5 -66t76.5 -99.5t28 -130.5q0 -112 -53 -171.5t-148 -59.5q-44 0 -77.5 13.5t-45.5 26.5l-12 13q4 2 11 6.5t24.5 22t31 39t24.5 59t11 80.5q0 56 -33.5 106t-97.5 76l-94 -545l61 -39 q144 -94 206.5 -185t62.5 -200q0 -173 -124 -292.5t-353 -139.5q-11 -67 -17 -118.5t-6 -69.5v-19q-23 -14 -68 -14q-65 0 -91 23t-24.5 73.5t15.5 130.5q-159 26 -252.5 113t-93.5 201zM438 1188q0 -131 115 -217l76 446q-85 -18 -138 -79t-53 -150zM598 119 q94 20 144.5 82t50.5 153q0 61 -28.5 110t-90.5 99z" />
<glyph unicode="%" horiz-adv-x="1908" d="M82 1061q0 218 125 346.5t325 128.5q137 0 219.5 -84t82.5 -223q0 -204 -121 -338.5t-326 -134.5q-137 0 -221 81t-84 224zM297 1028q0 -82 29 -120t77 -38q75 0 128 73.5t75 201.5q10 62 10 119q0 80 -29 118.5t-77 38.5q-31 0 -59 -13.5t-56.5 -43t-51.5 -85.5 t-36 -132q-10 -65 -10 -119zM461 51q0 40 67 158l676 1190q32 56 54.5 101t29.5 62l6 17q35 2 68 -10q46 -17 66 -36.5t20 -47.5q0 -39 -68 -158l-675 -1190q-32 -56 -54.5 -101t-29.5 -62l-7 -17q-34 -2 -67 10q-86 32 -86 84zM1075 305q0 218 125.5 346.5t325.5 128.5 q137 0 219 -84t82 -223q0 -204 -121 -338.5t-326 -134.5q-137 0 -221 81t-84 224zM1290 272q0 -81 29.5 -119t77.5 -38q75 0 127.5 73t74.5 201q11 68 11 119q0 80 -29.5 119t-77.5 39q-31 0 -59.5 -13.5t-56.5 -43.5t-51 -85.5t-36 -132.5q-10 -65 -10 -119z" />
<glyph unicode="&#x26;" horiz-adv-x="1400" d="M61 389q0 140 99 249t270 153q-93 44 -145 124t-52 177q0 192 153 318t388 126q195 0 303.5 -92t108.5 -227q0 -102 -52 -165t-147 -63q-39 0 -70.5 12.5t-42.5 24.5l-12 12q4 3 10 10t22 29t28 46.5t22 63t10 77.5q0 159 -157 159q-119 0 -200 -99t-81 -237 q0 -50 12 -92t38 -78t74.5 -55t115.5 -16q2 -9 2 -23q0 -78 -109 -78h-47q-120 -29 -189 -111.5t-69 -189.5q0 -59 14.5 -106.5t46 -86t87.5 -60t133 -21.5q166 0 277.5 112.5t150.5 301.5q-28 4 -47 4q-56 0 -104 -27.5t-73 -83.5q-22 0 -35.5 16.5t-13.5 45.5q0 60 38 111 t100 71q71 23 159.5 29.5t139.5 17.5q41 8 76.5 22t50.5 24l16 9q5 -4 11.5 -11.5t18 -35t11.5 -59.5q0 -77 -49.5 -121.5t-126.5 -44.5q-38 0 -68 6q-17 -110 -71.5 -211.5t-135.5 -178t-190.5 -122t-229.5 -45.5q-129 0 -234 43.5t-170 133.5t-65 212z" />
<glyph unicode="'" horiz-adv-x="409" d="M143 1024q35 264 35 442l-2 41q62 29 160 29q74 0 74 -76q0 -68 -50.5 -214t-101.5 -222h-115z" />
<glyph unicode="(" horiz-adv-x="782" d="M82 365q0 272 82 495.5t242 421.5q115 139 272 225q52 29 113 29q64 0 73 -47q-244 -161 -390 -469t-146 -694q0 -124 16.5 -237.5t40 -187.5t47.5 -130t40 -81l17 -26q-16 -26 -53 -26q-75 0 -135 67q-93 104 -156 287.5t-63 372.5z" />
<glyph unicode=")" horiz-adv-x="761" d="M-184 -317q244 161 390 469t146 694q0 124 -16.5 237.5t-40.5 187t-48 130t-41 81.5l-16 25q17 27 54 27q74 0 135 -68q94 -104 156.5 -287t62.5 -372q0 -272 -82 -496t-242 -422q-115 -139 -272 -225q-52 -29 -113 -29q-64 0 -73 48z" />
<glyph unicode="*" horiz-adv-x="937" d="M104 1186q-1 45 11 90q7 24 15 41t20 27t21.5 15.5t27.5 3t30 -5t37.5 -14.5t42 -20.5t49.5 -26.5l31 -16l2 41q3 72 2 116.5t-5 64.5l-3 20q43 14 88 14q20 0 35.5 -1.5t27.5 -7t20.5 -9.5t13.5 -15.5t8.5 -18t3 -25t-0.5 -28t-4.5 -35t-7 -38.5t-8.5 -45l-8 -41l31 12 q60 24 105.5 46t60.5 32l16 10q31 -35 49 -76q16 -34 18 -58t-6 -39.5t-30.5 -27.5t-50.5 -20.5t-73 -20.5l-24 -6l-45 -12l10 -16q29 -47 58.5 -84t43.5 -50l15 -14q-28 -36 -65 -63q-39 -28 -64.5 -34.5t-49 15.5t-37 46.5t-42.5 86.5q-5 11 -8 17l-14 31l-29 -35 q-42 -51 -70.5 -93.5t-36.5 -59.5l-8 -17q-43 14 -82 41q-27 20 -42 37t-16 36t2.5 33t25 38t38.5 40t54 49l20 19l-4 2q-62 22 -111.5 34t-68.5 13z" />
<glyph unicode="+" horiz-adv-x="1040" d="M61 569q0 131 170 131h183l41 228q6 36 6.5 64.5t-1.5 39.5l-3 10l6 3t18.5 5t30.5 -1q141 -25 111 -191l-29 -158h194q36 0 64.5 5t38.5 9l10 5q17 -14 17 -53q0 -131 -170 -131h-185l-41 -226q-6 -36 -6.5 -64.5t2.5 -38.5l2 -11q-2 -1 -5.5 -3t-17.5 -5t-32 1 q-64 11 -95.5 57.5t-15.5 133.5l29 156h-193q-36 0 -64 -4.5t-38 -9.5l-10 -5q-17 14 -17 53z" />
<glyph unicode="," horiz-adv-x="522" d="M41 102q0 62 42 105t101 43t96 -39.5t37 -104.5q0 -68 -36.5 -144.5t-89 -127.5t-97.5 -51q-24 0 -37.5 13t-13.5 30q67 61 84 158q-40 11 -63 42.5t-23 75.5z" />
<glyph unicode="-" horiz-adv-x="999" d="M-41 508q0 131 170 131h516q36 0 64.5 4.5t38.5 8.5l10 5q16 -14 16 -53q0 -131 -170 -131h-516q-36 0 -64.5 -4.5t-38.5 -8.5l-10 -5q-16 14 -16 53z" />
<glyph unicode="." horiz-adv-x="516" d="M41 102q0 62 42 105t101 43q58 0 92.5 -36.5t34.5 -92.5q0 -57 -41 -99t-106 -42q-55 0 -89 34t-34 88z" />
<glyph unicode="/" horiz-adv-x="1069" d="M41 51q0 39 68 158l675 1190q32 56 54.5 101t29.5 62l6 17q35 2 68 -10q46 -17 66 -36.5t20 -47.5q0 -40 -67 -158l-676 -1190q-32 -56 -54.5 -101t-28.5 -62l-7 -17q-35 -2 -68 10q-86 32 -86 84z" />
<glyph unicode="0" horiz-adv-x="1306" d="M102 541q0 280 82 506.5t231.5 357.5t338.5 131q225 0 337.5 -144.5t112.5 -396.5q0 -273 -78 -498t-229.5 -361t-349.5 -136q-207 0 -326 141t-119 400zM387 406q0 -293 168 -293q63 0 122 59t105 174q59 144 98.5 356.5t39.5 427.5q0 293 -168 293q-64 0 -124 -61 t-104 -172q-58 -147 -97.5 -360t-39.5 -424z" />
<glyph unicode="1" horiz-adv-x="729" d="M104 1270q72 37 135.5 77.5t103 73t68 59.5t40.5 42l12 14q111 0 142.5 -50t10.5 -173l-192 -1098q-11 -64 -11.5 -112.5t4.5 -65.5l5 -17q-33 -20 -117 -20q-111 0 -142.5 50t-10.5 173l182 1049l-66 -41q-53 -32 -81 -37q-11 -2 -23 -2q-32 0 -48.5 23.5t-11.5 54.5z " />
<glyph unicode="2" horiz-adv-x="1202" d="M20 111q0 143 359 460q92 81 153.5 140t119.5 125.5t91 123.5t52.5 121t19.5 131q0 105 -54.5 159t-152.5 54q-91 0 -156 -78.5t-65 -183.5q0 -37 9.5 -68.5t18.5 -44.5l9 -12q-3 -5 -10.5 -13.5t-38 -22t-70.5 -13.5q-68 0 -107.5 43.5t-39.5 124.5q0 153 139 266 t362 113q199 0 320 -108t121 -269q0 -99 -26.5 -180t-88.5 -157t-149 -145.5t-222 -154.5q-25 -16 -85.5 -54t-85.5 -54t-72.5 -48t-71 -51t-54.5 -46t-51 -51.5t-34 -49.5q101 38 235 51q75 7 197.5 9.5t214 10t156.5 29.5q24 -31 24 -84q0 -87 -71 -135.5t-209 -48.5 q-101 0 -239 18.5t-196 18.5q-46 0 -86 -9.5t-56 -18.5l-17 -9q-38 0 -65.5 34.5t-27.5 76.5z" />
<glyph unicode="3" horiz-adv-x="1200" d="M43 303q-6 43 14.5 75t55.5 25q9 -100 88.5 -162.5t191.5 -62.5q154 0 240 94t86 228q0 195 -144 245h-63q-52 0 -73 20t-21 58l2 23q171 0 282 105.5t111 267.5q0 95 -52 149.5t-147 54.5q-103 0 -172 -78.5t-69 -195.5q0 -33 7 -60.5t14 -38.5l7 -12q-1 -2 -3.5 -5.5 t-12.5 -11.5t-22.5 -14.5t-34.5 -12t-47 -5.5q-64 0 -102 40t-38 112q0 114 75 206t193.5 140.5t252.5 48.5q200 0 318 -102t118 -265q0 -133 -94.5 -235t-243.5 -152q118 -40 181 -124t63 -203q0 -92 -35.5 -173.5t-101 -144.5t-168.5 -100t-230 -37q-98 0 -179 28.5 t-131 74.5t-79.5 97t-36.5 103z" />
<glyph unicode="4" horiz-adv-x="1212" d="M20 561l3 27q59 44 120.5 120.5t114 170t86 206t33.5 215.5q0 23 -3.5 45t-9 38t-12.5 30t-14 23.5t-12.5 16t-9.5 9.5l-3 4q0 3 18.5 19t61.5 33.5t92 17.5q69 0 109.5 -43.5t40.5 -128.5q0 -181 -130 -396.5t-302 -375.5h454l129 731q11 63 11.5 111t-4.5 65l-5 17 q33 20 117 20q111 0 143 -50.5t11 -172.5l-127 -721h90q36 0 64.5 4.5t38.5 9.5l10 4q16 -14 16 -53q0 -131 -170 -131h-78l-37 -211q-11 -64 -11.5 -112.5t4.5 -65.5l5 -17q-32 -20 -116 -20q-111 0 -143 50.5t-11 172.5l35 203h-402q-207 0 -207 135z" />
<glyph unicode="5" horiz-adv-x="1159" d="M45 303q-9 46 12.5 77.5t57.5 22.5q12 -104 83 -164.5t185 -60.5q154 0 247 105.5t93 271.5q0 118 -62.5 187t-168.5 69q-47 0 -90 -12t-71 -29.5t-49 -34.5t-30 -29l-10 -12q-44 0 -66.5 23t-15.5 65l114 672q13 82 115 82q29 0 212 -23.5t341 -23.5q53 0 101 8.5 t70 16.5l22 8q24 -24 24 -84q0 -185 -244 -185q-85 0 -179.5 20t-198 50.5t-156.5 40.5l-82 -483q119 55 270 55q206 0 322.5 -112t116.5 -285q0 -244 -153.5 -391.5t-397.5 -147.5q-175 0 -281 87t-131 216z" />
<glyph unicode="6" horiz-adv-x="1251" d="M102 504q0 163 31.5 316.5t93 282.5t145.5 226.5t195 152t236 54.5q177 0 261.5 -77.5t84.5 -198.5q0 -77 -48.5 -134t-121.5 -57q-39 0 -72.5 12.5t-46.5 24.5l-14 12q7 7 17 21t27 57.5t17 87.5q0 139 -121 139q-65 0 -124 -57t-102 -151t-74 -190.5t-52 -199.5 q147 103 301 103q170 0 265.5 -98t95.5 -273q0 -156 -69 -282.5t-198 -200.5t-294 -74q-92 0 -170 32t-137 93.5t-92.5 158.5t-33.5 220zM381 401q0 -148 46 -218t124 -70q81 0 142.5 69t89.5 165t28 198q0 239 -174 239q-133 0 -236 -143q-20 -109 -20 -240z" />
<glyph unicode="7" horiz-adv-x="974" d="M82 1352q0 184 244 184q31 0 64 -1.5t73 -5.5t66.5 -6.5t76 -10t68.5 -10t76 -12.5t67 -11.5t73 -13t64 -11.5q40 -7 55 -40.5t-1 -59.5q-137 -149 -259.5 -355t-202 -438t-79.5 -418q0 -33 3.5 -63.5t7.5 -45.5l3 -14q-37 -20 -121 -20q-98 0 -134 41t-36 145 q0 133 54.5 292t144 308t200.5 285t228 240h-508q-57 0 -108 -10.5t-73 -21.5l-22 -11q-24 23 -24 84z" />
<glyph unicode="8" horiz-adv-x="1216" d="M41 371q0 63 20 121t52 100t70.5 78t77 59.5t70.5 40t52 24.5l20 7q-95 91 -133.5 166t-38.5 170q0 162 143.5 280.5t338.5 118.5q199 0 310.5 -91.5t111.5 -242.5q0 -55 -18.5 -106.5t-48 -89.5t-65.5 -71.5t-72 -56t-65.5 -38.5t-47.5 -24l-19 -7l67 -59 q85 -74 126.5 -152t41.5 -172q0 -80 -36.5 -155.5t-103 -136.5t-171 -97.5t-229.5 -36.5q-190 0 -321.5 106t-131.5 265zM248 375q0 -116 71 -189t189 -73q115 0 185.5 64t70.5 161q0 139 -164 285l-111 98q-10 -4 -26 -12.5t-57.5 -39.5t-73.5 -67.5t-58 -97.5t-26 -129z M498 1202q0 -75 30.5 -128t98.5 -113l90 -78q9 5 23 14t50.5 40t64 66t50.5 90t23 113q0 99 -60.5 158t-154.5 59q-93 0 -154 -62.5t-61 -158.5z" />
<glyph unicode="9" horiz-adv-x="1232" d="M102 276q0 77 48.5 134t121.5 57q39 0 72.5 -12.5t47.5 -24.5l14 -12q-7 -7 -17.5 -21t-27.5 -57.5t-17 -87.5q0 -139 123 -139q69 0 134.5 83.5t114.5 215.5t83 299q-147 -103 -301 -103q-170 0 -265.5 98t-95.5 273q0 156 69 282.5t198 200.5t294 74q92 0 170 -32 t136.5 -93.5t92 -158.5t33.5 -220q0 -205 -47 -391t-132 -329t-215 -227.5t-285 -84.5q-178 0 -263.5 78t-85.5 198zM422 991q0 -239 174 -239q132 0 235 143q21 109 21 240q0 148 -46 218t-124 70q-81 0 -142.5 -69t-89.5 -165t-28 -198z" />
<glyph unicode=":" horiz-adv-x="559" d="M41 102q0 62 42 105t101 43q58 0 92.5 -36.5t34.5 -92.5q0 -57 -41 -99t-106 -42q-55 0 -89 34t-34 88zM166 879q0 62 42 104.5t101 42.5q58 0 92.5 -36.5t34.5 -92.5q0 -57 -41 -99t-106 -42q-55 0 -89 34.5t-34 88.5z" />
<glyph unicode=";" horiz-adv-x="559" d="M41 102q0 62 42 105t101 43t96 -39.5t37 -104.5q0 -68 -36.5 -144.5t-89 -127.5t-97.5 -51q-24 0 -37.5 13t-13.5 30q67 61 84 158q-40 11 -63 42.5t-23 75.5zM166 879q0 62 42 104.5t101 42.5q58 0 92.5 -36.5t34.5 -92.5q0 -57 -41 -99t-106 -42q-55 0 -89 34.5 t-34 88.5z" />
<glyph unicode="&#x3c;" horiz-adv-x="1013" d="M41 512l702 440q32 20 55.5 37t30.5 24l7 7q20 -6 38 -41q17 -34 17 -66q0 -86 -107 -145l-456 -258l356 -346q25 -25 48.5 -41t34.5 -19l11 -4q1 -20 -26 -49q-48 -51 -107 -51q-61 0 -121 55z" />
<glyph unicode="=" horiz-adv-x="1103" d="M61 369q0 131 170 131h557q36 0 64.5 4.5t38.5 9.5l10 4q17 -14 17 -53q0 -131 -170 -131h-558q-36 0 -64 -5t-38 -9l-10 -5q-17 15 -17 54zM125 727q0 131 170 131h557q36 0 64.5 5t38.5 9l10 5q16 -15 16 -54q0 -131 -170 -131h-557q-36 0 -64.5 -4.5t-38.5 -9.5 l-10 -4q-16 14 -16 53z" />
<glyph unicode="&#x3e;" horiz-adv-x="1013" d="M41 111q0 87 106 145l457 258l-356 346q-25 25 -48.5 41t-34.5 19l-11 4q-1 20 26 49q48 51 107 51q61 0 121 -55l483 -457l-703 -440q-32 -20 -55 -37t-30 -24l-7 -7q-21 6 -39 41q-16 32 -16 66z" />
<glyph unicode="?" horiz-adv-x="1011" d="M0 1157q0 73 37 141.5t101 120.5t158 84t202 33q106 0 190 -26.5t136 -72t79 -103.5t27 -124q0 -94 -31.5 -166.5t-89 -132.5t-172.5 -153q-162 -131 -205 -297q-9 -35 -11.5 -62.5t-0.5 -38.5l2 -10q-18 -14 -51 -14q-39 0 -55.5 24.5t-16.5 71.5q0 218 170 412 q176 201 176 385q0 93 -49 144.5t-139 51.5q-97 0 -162.5 -76.5t-65.5 -185.5q0 -37 9 -68.5t18 -44.5l10 -12q-3 -5 -10.5 -13.5t-38 -22t-70.5 -13.5q-68 0 -107.5 43.5t-39.5 124.5zM199 102q0 62 42 105t101 43q58 0 92.5 -36.5t34.5 -92.5q0 -57 -41 -99t-106 -42 q-55 0 -89 34t-34 88z" />
<glyph unicode="@" horiz-adv-x="1908" d="M0 532q0 190 75.5 358t205 287t309 188t381.5 69q215 0 382.5 -80t259 -222t91.5 -323q0 -87 -22.5 -174t-67.5 -165.5t-107 -139.5t-146 -97t-179 -36q-99 0 -161.5 49t-76.5 135q-103 -184 -252 -184q-111 0 -176 77.5t-65 214.5q0 122 35.5 225.5t93 169.5t129 103 t145.5 37q110 0 178 -82q23 44 61.5 63t100.5 19q24 0 44.5 -4t29.5 -8l8 -4q-23 -31 -39 -119l-72 -404q-33 -176 78 -176q91 0 162.5 135.5t71.5 337.5q0 248 -140 393.5t-395 145.5q-100 0 -199.5 -29.5t-193 -94t-165 -156.5t-114.5 -227t-43 -296q0 -253 163 -412 t429 -159q94 0 174.5 14.5t127.5 34.5t81 40.5t47 35.5l13 14q26 0 36.5 -11t10.5 -36q0 -74 -138.5 -140.5t-357.5 -66.5q-236 0 -420.5 87t-288.5 247t-104 366zM678 494q0 -69 21 -106.5t59 -37.5q45 0 94 62t84.5 149.5t50.5 171.5l12 72q-18 88 -98 88q-83 0 -153 -116 t-70 -283z" />
<glyph unicode="A" horiz-adv-x="1359" d="M-82 158q0 32 7 57.5t15 34.5l7 10q22 -16 71 -16q74 0 145.5 71t141.5 242q-41 -4 -76.5 -16t-50.5 -21l-16 -10q-33 27 -33 82q0 62 44 98.5t120 36.5q37 0 74 -6l155 432q73 204 187 293.5t327 89.5q120 0 152 -51q20 -31 20 -88q0 -37 -8 -84l-168 -965 q-5 -30 -5 -55q1 -45 17 -73q26 -42 80 -42q46 0 93.5 34.5t75.5 71.5t46 72q40 0 40 -41q0 -6 -1 -12q-7 -47 -39.5 -100t-81 -98.5t-115.5 -75t-134 -29.5q-110 0 -178 69t-68 185q0 109 29 285l4 22h-357l-61 -170q-35 -97 -67.5 -166.5t-61.5 -113t-60.5 -68.5 t-60.5 -34t-66 -9q-64 0 -103.5 43.5t-39.5 114.5zM489 702q169 -26 324 -28l115 649q4 27 6.5 52t3.5 37v11q-96 0 -170.5 -76t-114.5 -190z" />
<glyph unicode="B" horiz-adv-x="1480" d="M-41 1186q0 156 137 253t379 97h275q175 0 303.5 -29.5t202.5 -84t108.5 -122.5t34.5 -153q0 -66 -23 -128t-67 -115.5t-118 -90.5t-167 -47q138 -23 223.5 -113t85.5 -215q0 -92 -38 -170.5t-111.5 -139t-193 -94.5t-271.5 -34q-286 0 -373 102q-37 40 -37 107 q0 33 13 104l176 1010q10 68 10 100h-19q-133 0 -205.5 -63.5t-72.5 -157.5q0 -43 22 -68.5t60 -25.5q10 0 19 1.5t12 2.5l4 2q2 -6 2 -18q0 -42 -42 -78.5t-114 -36.5q-99 0 -157 56t-58 149zM578 119q46 -6 106 -6q167 0 266 98.5t99 249.5q0 119 -66.5 182.5t-179.5 63.5 h-139l-76 -433q-12 -67 -12 -116q0 -21 2 -39zM682 819h121q127 0 219 94.5t92 255.5q0 122 -71.5 188t-198.5 66h-56z" />
<glyph unicode="C" horiz-adv-x="1320" d="M102 637q0 198 59.5 367t161.5 285t241.5 181.5t297.5 65.5q183 0 287 -101.5t104 -246.5q0 -138 -73.5 -217.5t-175.5 -79.5q-44 0 -77.5 17.5t-44.5 35.5l-12 17q6 2 16.5 7.5t37 28.5t47 52.5t37 83.5t16.5 118q0 81 -46 126.5t-122 45.5q-117 0 -225 -101.5 t-176 -279.5t-68 -383q0 -234 117.5 -361.5t324.5 -127.5q159 0 290 52.5t206 133.5q36 0 36 -33q0 -6 -1 -12q-10 -42 -61 -94t-131.5 -101t-200 -82.5t-246.5 -33.5q-176 0 -315.5 75.5t-221.5 221.5t-82 340z" />
<glyph unicode="D" horiz-adv-x="1613" d="M-41 1145q0 62 26 119t79.5 106.5t130.5 86.5t185 58t236 21q208 0 380 -55.5t289.5 -155t182 -239t64.5 -304.5q0 -180 -56 -328t-155.5 -247t-237.5 -153t-301 -54q-146 0 -280 55q-82 -55 -211 -55q-84 0 -125 35.5t-41 85.5q0 53 39.5 88t116.5 35q29 0 79 -11 l148 844q12 63 12 111v8q0 41 -5 57l-5 17q33 20 117 20q111 0 143 -50q19 -30 19 -86q0 -38 -9 -87l-137 -782q-16 -89 -53 -144q59 -18 125 -18q246 0 389 189t143 501q0 285 -164.5 447.5t-455.5 162.5q-108 0 -192 -24t-130.5 -63.5t-70 -84t-23.5 -90.5q0 -43 22 -68.5 t60 -25.5q10 0 19 1.5t12 3.5l4 1q2 -6 2 -18q0 -42 -42 -78.5t-114 -36.5q-99 0 -157 56t-58 149z" />
<glyph unicode="E" horiz-adv-x="1187" d="M61 389q0 140 99 249t270 153q-93 44 -145 124t-52 177q0 192 153 318t388 126q195 0 303.5 -92t108.5 -227q0 -102 -52 -165t-147 -63q-39 0 -70.5 12.5t-42.5 24.5l-12 12q4 3 10 10t22 29t28 46.5t22 63t10 77.5q0 159 -157 159q-118 0 -199.5 -99t-81.5 -237 q0 -50 12 -92t38 -78t74 -55q42 -16 98 -16h18q2 -9 2 -23q0 -78 -109 -78h-47q-120 -29 -189 -111.5t-69 -189.5q0 -123 92.5 -198.5t288.5 -75.5q181 0 312.5 57.5t193.5 128.5q37 0 37 -30q0 -7 -2 -15q-10 -46 -67 -99.5t-144.5 -101t-211.5 -79t-251 -31.5 q-242 0 -386.5 103.5t-144.5 285.5z" />
<glyph unicode="F" horiz-adv-x="1275" d="M-41 1186q0 159 142 254.5t417 95.5q90 0 305.5 -23.5t442.5 -23.5q53 0 101 8.5t69 16.5l22 8q23 -23 23 -68q0 -86 -61 -139t-187 -53q-71 0 -140.5 12t-106.5 23.5t-109.5 39t-96.5 35.5l-88 -498h269q33 0 63 2t44 4l13 3q17 -17 17 -56q0 -44 -34 -72t-108 -28 q-40 0 -85 4.5t-103.5 12t-95.5 10.5l-94 -539q-11 -65 -12 -113v-15q0 -36 4 -50l5 -17q-32 -20 -116 -20q-111 0 -143 50q-19 30 -19 88q0 37 8 85l193 1100q10 56 10 100h-19q-133 0 -205.5 -63.5t-72.5 -157.5q0 -43 22 -68.5t60 -25.5q10 0 19 1.5t12 2.5l4 2 q2 -6 2 -18q0 -42 -42 -78.5t-114 -36.5q-99 0 -157 56t-58 149z" />
<glyph unicode="G" horiz-adv-x="1372" d="M102 629q0 197 58 367t157.5 288t237 185t293.5 67q188 0 300 -99.5t112 -248.5q0 -133 -71.5 -215t-180.5 -82q-27 0 -51 7t-38 17.5t-24 21t-14 17.5l-4 7q6 2 16.5 7.5t37 28.5t46.5 51.5t36.5 81.5t16.5 115q0 88 -47.5 133t-138.5 45q-60 0 -124 -34.5t-123 -103 t-106 -161t-75.5 -220.5t-28.5 -269q0 -224 87 -340.5t249 -116.5q130 0 227 80t137 219q-99 -24 -192 -24q-65 0 -102 35t-37 96q0 19 4 36.5t8 25.5l4 7q69 -8 143 -8h406q10 -14 10 -39q0 -67 -121 -96q-18 -99 -60.5 -187.5t-109.5 -162t-168 -117t-221 -43.5 q-115 0 -214.5 41.5t-174 119.5t-117.5 198.5t-43 269.5z" />
<glyph unicode="H" horiz-adv-x="1624" d="M-41 1186q0 156 137 253t379 97h143q111 0 143 -50q19 -30 19 -88q0 -37 -8 -85l-88 -502h418l90 512q12 63 12 111v8q0 41 -5 57l-5 17q33 20 117 20q111 0 143 -50q19 -30 19 -86q0 -38 -9 -87l-168 -965q-5 -30 -5 -55q0 -46 17 -73q26 -42 81 -42q46 0 93.5 34.5 t75.5 71.5t46 72q39 0 39 -41q0 -6 -1 -12q-7 -47 -39.5 -100t-81 -98.5t-115.5 -75t-134 -29.5q-110 0 -178 69t-68 185q0 109 29 285l26 159h-417l-84 -483q-12 -65 -12 -113q0 -4 1 -8q0 -41 4 -57l5 -17q-33 -20 -117 -20q-111 0 -143 50q-19 30 -19 88q0 37 8 85 l193 1100q10 68 10 100h-21q-133 0 -205.5 -63.5t-72.5 -157.5q0 -43 22 -68.5t60 -25.5q10 0 19 1.5t12 2.5l4 2q2 -6 2 -18q0 -42 -42 -78.5t-114 -36.5q-99 0 -157 56t-58 149z" />
<glyph unicode="I" horiz-adv-x="905" d="M-41 1186q0 156 137 253t379 97h143q111 0 143 -50q19 -30 19 -88q0 -37 -8 -85l-192 -1098q-12 -65 -12 -113q0 -4 1 -8q0 -41 4 -57l5 -17q-33 -20 -117 -20q-111 0 -143 50q-19 30 -19 88q0 37 8 85l193 1100q10 68 10 100h-21q-133 0 -205.5 -63.5t-72.5 -157.5 q0 -43 22 -68.5t60 -25.5q10 0 19 1.5t12 2.5l4 2q2 -6 2 -18q0 -42 -42 -78.5t-114 -36.5q-99 0 -157 56t-58 149z" />
<glyph unicode="J" horiz-adv-x="991" d="M-123 -51q0 73 43.5 113t120.5 40q24 0 43 -3t26 -6l7 -3q-35 -67 -35 -145q0 -57 27 -88t77 -31q68 0 113 60.5t70 201.5l217 1235q10 65 10 100h-21q-133 0 -205.5 -63.5t-72.5 -157.5q0 -43 22 -68.5t60 -25.5q10 0 19 1.5t12 2.5l4 2q2 -6 2 -18q0 -42 -42 -78.5 t-114 -36.5q-99 0 -157 56t-58 149q0 156 137 253t379 97h144q111 0 143 -50q19 -30 19 -85q0 -38 -9 -88l-207 -1178q-73 -422 -469 -422q-145 0 -225 65.5t-80 170.5z" />
<glyph unicode="K" horiz-adv-x="1533" d="M-41 1186q0 156 137 253t379 97h141q112 0 144 -50q19 -30 19 -86q0 -38 -9 -87l-88 -496h66q123 0 243 215l135 246q75 137 144 197.5t151 60.5q81 0 126.5 -43.5t45.5 -120.5q0 -31 -8.5 -57.5t-21 -43.5t-25 -29.5t-20.5 -17.5l-9 -5q-1 4 -3 9.5t-11 21t-21 27 t-35 21t-50 9.5q-68 0 -118 -40.5t-95 -127.5l-72 -138q-86 -166 -162 -202q153 -14 197 -176l80 -291q23 -81 51 -117.5t76 -36.5q62 0 121 61t87 117q40 0 40 -41q0 -6 -1 -12q-5 -43 -37.5 -95.5t-81.5 -99t-116 -77.5t-133 -31q-106 0 -170 63.5t-97 190.5l-81 317 q-18 69 -49.5 101.5t-90.5 32.5h-73l-86 -490q-11 -65 -12 -113v-15q0 -36 4 -50l5 -17q-32 -20 -116 -20q-111 0 -143 50q-19 30 -19 88q0 37 8 85l193 1100q10 68 10 100h-19q-133 0 -205.5 -63.5t-72.5 -157.5q0 -43 22 -68.5t60 -25.5q10 0 19 1.5t12 2.5l4 2 q2 -6 2 -18q0 -42 -42 -78.5t-114 -36.5q-99 0 -157 56t-58 149z" />
<glyph unicode="L" horiz-adv-x="1263" d="M-41 1186q0 156 137 253t379 97h143q112 0 144 -50q19 -30 19 -86q0 -38 -9 -87l-190 -1086q200 -12 376 -12q102 0 178 13.5t101 26.5l25 13q22 -25 22 -88q0 -82 -58 -131t-173 -49q-114 0 -241.5 29t-197.5 57l-71 29q-4 -5 -10.5 -12.5t-29.5 -27.5t-48.5 -35 t-66 -27.5t-83.5 -12.5q-79 0 -119.5 36t-40.5 85q0 51 39 87t111 36h16l189 1079q10 54 10 100h-21q-133 0 -205.5 -63.5t-72.5 -157.5q0 -43 22 -68.5t60 -25.5q10 0 19 1.5t12 2.5l4 2q2 -6 2 -18q0 -42 -42 -78.5t-114 -36.5q-99 0 -157 56t-58 149z" />
<glyph unicode="M" horiz-adv-x="1857" d="M-82 158q0 32 7 57.5t15 34.5l7 10q22 -16 71 -16q71 0 122 36.5t104 139t106 287.5l129 446q33 116 52.5 206.5t22.5 123.5l3 33q47 20 117 20q95 0 132.5 -39.5t41.5 -150.5l43 -1006l448 936q72 148 88 240q33 20 117 20q111 0 143 -51q19 -31 19 -87q0 -37 -8 -85 l-168 -965q-5 -30 -5 -55q1 -45 17 -73q26 -42 80 -42q46 0 93.5 34.5t75.5 71.5t46 72q40 0 40 -41q0 -6 -1 -12q-7 -47 -40 -100t-81.5 -98.5t-115.5 -75t-134 -29.5q-110 0 -177.5 69t-67.5 185q0 115 28 285l105 596l-428 -904q-24 -50 -41.5 -100t-23.5 -75l-5 -25 q-47 -31 -129 -31q-78 0 -106 50.5t-33 156.5l-41 936l-203 -752q-57 -211 -132.5 -301t-180.5 -90q-69 0 -110.5 43.5t-41.5 114.5z" />
<glyph unicode="N" horiz-adv-x="1597" d="M-41 1186q0 156 137 253t379 97h182q83 0 130 -37t71 -125l311 -1098l121 685q21 119 29 222q6 72 6 123q1 23 -1 42q-4 62 -11 107t-14 63l-7 18q21 18 72 18q59 0 85 -29.5t26 -99.5q0 -82 -41 -307l-158 -901q-17 -97 -17 -151q0 -30 5 -46q-40 -20 -146 -20 q-82 0 -126 38.5t-68 123.5l-316 1112l-123 -699q-21 -119 -29 -222q-5 -70 -5 -121q-1 -24 1 -44q4 -62 10.5 -107t13.5 -63l7 -18q-20 -18 -71 -18q-59 0 -85 29.5t-26 99.5q0 82 41 307l158 901q8 49 12 104h-23q-133 0 -205.5 -63.5t-72.5 -157.5q0 -43 22 -68.5 t60 -25.5q10 0 19 1.5t12 2.5l4 2q2 -6 2 -18q0 -42 -42 -78.5t-114 -36.5q-99 0 -157 56t-58 149z" />
<glyph unicode="O" d="M102 569q0 277 90.5 496t260 345t389.5 126q230 0 358.5 -151.5t128.5 -417.5q0 -162 -32.5 -308.5t-96.5 -266t-152.5 -207.5t-205.5 -136.5t-252 -48.5q-221 0 -354.5 145.5t-133.5 423.5zM383 487q0 -199 63 -286.5t168 -87.5q139 0 249 167t161 488q23 141 23 281 q0 198 -63 286t-169 88q-132 0 -245 -162.5t-164 -492.5q-23 -161 -23 -281z" />
<glyph unicode="P" horiz-adv-x="1480" d="M-41 1145q0 62 25.5 118.5t80.5 106.5t134 87t193 58t251 21q208 0 364 -41.5t249 -117t138.5 -173t45.5 -217.5q0 -244 -170 -397.5t-451 -153.5q-92 0 -180 15l-41 -236q-12 -65 -12 -113q0 -4 1 -8q0 -41 4 -57l5 -17q-33 -20 -117 -20q-111 0 -143 50q-19 30 -18 86 q0 38 8 87l153 883q11 63 11 111q0 4 1 8q0 41 -5 57l-5 16q33 21 117 21q111 -1 143 -51q19 -30 20 -87q0 -37 -9 -85l-95 -539q45 -8 113 -8q171 0 278 127.5t107 322.5t-130.5 309.5t-387.5 114.5q-111 0 -196 -24t-133.5 -63t-72.5 -83.5t-24 -91.5q0 -43 22 -68.5 t60 -25.5q10 0 19 1.5t12 3.5l4 1q2 -6 2 -18q0 -42 -42 -78.5t-114 -36.5q-99 0 -157 56t-58 149z" />
<glyph unicode="Q" d="M102 569q0 277 90.5 496t260 345t389.5 126q230 0 358.5 -151.5t128.5 -417.5q0 -244 -72 -447t-211.5 -338t-326.5 -170l39 -37q61 -57 124.5 -101t96.5 -60l33 -15q-8 -51 -49 -86q-51 -43 -117 -43q-113 0 -176 111l-97 166q-9 16 -18.5 30t-14.5 19l-5 6 q-198 18 -315.5 162.5t-117.5 404.5zM383 487q0 -199 63 -286.5t168 -87.5q139 0 249 167t161 488q23 141 23 281q0 198 -63 286t-169 88q-132 0 -245 -162.5t-164 -492.5q-23 -161 -23 -281z" />
<glyph unicode="R" horiz-adv-x="1550" d="M-41 1145q0 78 42 147t124.5 124.5t218 87.5t309.5 32q394 0 590.5 -127.5t196.5 -347.5q0 -109 -63.5 -202t-167 -149.5t-226.5 -72.5q78 -18 135.5 -67t81.5 -126l35 -112q24 -78 55.5 -116t79.5 -38q33 0 67 20t60 50.5t44.5 57.5t29.5 50q40 0 40 -41q0 -6 -1 -12 q-5 -44 -36 -96t-77.5 -98.5t-111 -77.5t-130.5 -31q-107 0 -178 66.5t-102 187.5l-39 149q-23 88 -58.5 128t-101.5 40h-117l-61 -356q-12 -65 -12 -113q0 -4 1 -8q0 -41 4 -57l5 -17q-33 -20 -117 -20q-111 0 -143 50q-19 30 -18 86q0 38 8 87l153 883q11 63 11 111 q0 4 1 8q0 41 -5 57l-5 16q33 21 117 21q111 -1 143 -51q19 -30 20 -87q0 -37 -9 -85l-72 -412h78q182 0 289.5 105t107.5 284q0 347 -518 350q-111 0 -197 -24t-134 -63.5t-71.5 -84t-23.5 -90.5q0 -43 22 -68.5t60 -25.5q10 0 19 1.5t12 3.5l4 1q2 -6 2 -18 q0 -42 -42 -78.5t-114 -36.5q-99 0 -157 56t-58 149z" />
<glyph unicode="S" horiz-adv-x="1230" d="M41 330q0 105 50.5 159t129.5 54q44 0 75 -13.5t40 -27.5l10 -13q-8 -7 -20 -21t-32 -58.5t-20 -90.5q0 -94 64.5 -150t181.5 -56q134 0 216.5 71t82.5 174q0 78 -43 137t-145 117l-219 125q-125 71 -180.5 160t-55.5 203q0 86 36.5 164t104 139t173.5 97t235 36 q217 0 351 -97.5t134 -250.5q0 -107 -53 -167t-147 -60q-44 0 -78 13.5t-46 26.5l-12 13q4 2 11 7t25 23t31.5 39.5t24.5 58.5t11 79q0 91 -64.5 146.5t-189.5 55.5q-127 0 -206 -68.5t-79 -180.5q0 -64 37.5 -122.5t106.5 -99.5l260 -151q239 -140 239 -367 q0 -86 -38 -163.5t-108 -138.5t-180.5 -96.5t-246.5 -35.5q-209 0 -338 93t-129 237z" />
<glyph unicode="T" horiz-adv-x="1314" d="M-41 1186q0 158 140 254t403 96q97 0 338 -23.5t465 -23.5q53 0 101 8.5t70 16.5l21 8q23 -23 23 -68q0 -86 -61 -139t-187 -53q-35 0 -68.5 3t-56.5 6t-56.5 12t-48.5 13.5t-55 17t-55 17.5l-195 -1116q-11 -65 -11 -113v-8q0 -41 4 -57l5 -17q-33 -20 -117 -20 q-110 0 -142 50q-19 30 -19 86q0 38 8 87l192 1100l11 80q-105 20 -170 20q-134 0 -210.5 -64t-76.5 -157q0 -43 22 -68.5t60 -25.5q10 0 19 1.5t12 2.5l4 2q2 -6 2 -18q0 -42 -42 -78.5t-114 -36.5q-99 0 -157 56t-58 149z" />
<glyph unicode="U" horiz-adv-x="1624" d="M-41 1186q0 156 137 253t379 97h143q112 0 144 -50q19 -30 19 -86q0 -38 -9 -87l-166 -942q-10 -57 -10 -96q0 -33 7 -53q15 -44 67 -44q68 0 149 123q253 380 373 1022q12 63 12 111q0 4 1 8q0 41 -5 57l-6 17q33 20 117 20q111 0 143 -50q19 -30 19 -86q0 -38 -9 -87 l-168 -965q-5 -30 -5 -55q0 -46 17 -73q26 -42 81 -42q46 0 93.5 34.5t75.5 71.5t46 72q39 0 39 -41q0 -6 -1 -12q-7 -47 -39.5 -100t-81 -98.5t-115.5 -75t-134 -29.5q-110 0 -178 69t-68 185q0 104 18 227q-70 -150 -137 -262q-134 -219 -334 -219q-110 0 -176.5 70 t-66.5 184q0 94 20 217l150 852q10 68 10 100h-21q-133 0 -205.5 -63.5t-72.5 -157.5q0 -43 22 -68.5t60 -25.5q10 0 19 1.5t12 2.5l4 2q2 -6 2 -18q0 -42 -42 -78.5t-114 -36.5q-99 0 -157 56t-58 149z" />
<glyph unicode="V" horiz-adv-x="1585" d="M-41 1186q0 156 137 253t379 97h141q111 0 143 -50q19 -30 19 -88q0 -37 -8 -85l-102 -594q-27 -162 -27 -246q0 -87 17 -147.5t48 -91.5t66 -43.5t80 -12.5q146 0 258 189q93 161 156 406.5t63 469.5q0 174 -41 293q29 18 88 18q84 0 116 -56t32 -161q0 -132 -55.5 -347 t-133.5 -412q-55 -139 -111.5 -240.5t-124.5 -180t-149 -118t-176 -39.5q-104 0 -181 37t-122 104t-66.5 152.5t-21.5 191.5q0 125 18 236l97 602q4 26 6.5 51t3.5 37v12h-19q-133 0 -205.5 -63.5t-72.5 -157.5q0 -43 22 -68.5t60 -25.5q10 0 19 1.5t12 2.5l4 2q2 -6 2 -18 q0 -42 -42 -78.5t-114 -36.5q-99 0 -157 56t-58 149z" />
<glyph unicode="W" horiz-adv-x="2203" d="M-41 1186q0 156 137 253t379 97h141q111 0 143 -50q19 -30 19 -88q0 -37 -8 -85l-115 -651q-22 -135 -22 -242q0 -242 158 -242q179 0 307 397l121 748q11 63 11 111v10q0 40 -4 55l-5 17q32 20 116 20q111 0 143 -50q19 -30 20 -88q0 -37 -9 -85l-96 -545 q-37 -209 -37 -338q0 -136 38.5 -194t114.5 -58q114 0 220 180q87 147 150 404.5t63 464.5q0 82 -9 159t-19 114l-9 36q29 18 88 18q83 0 115 -56t32 -161q0 -221 -188 -759q-49 -140 -100.5 -242.5t-114 -180t-138 -116.5t-163.5 -39q-136 0 -223 75t-115 208 q-82 -134 -182.5 -208.5t-210.5 -74.5q-332 0 -332 442q0 112 31 314l92 567l10 100h-19q-133 0 -205.5 -63.5t-72.5 -157.5q0 -43 22 -68.5t60 -25.5q10 0 19 1.5t12 2.5l4 2q2 -6 2 -18q0 -42 -42 -78.5t-114 -36.5q-99 0 -157 56t-58 149z" />
<glyph unicode="X" horiz-adv-x="1380" d="M0 1186q0 156 137 253t379 97h66q96 0 143.5 -36.5t69.5 -121.5l114 -444q154 139 219.5 259t65.5 269q0 21 -3 39.5t-6 26.5l-3 8q43 18 84 18q77 0 117 -35t40 -102q0 -100 -79 -203t-322 -333l-80 -76l121 -465q23 -87 51 -124.5t80 -37.5q32 0 65.5 18.5t57.5 44.5 t44 52t30 45l10 18q40 0 40 -39q0 -7 -1 -16q-9 -51 -41 -104t-79 -97t-111 -72t-130 -28q-104 0 -176 69t-115 238l-75 295q-156 -140 -221.5 -260.5t-65.5 -269.5q0 -21 3 -39.5t6 -26.5l3 -8q-43 -18 -84 -18q-77 0 -117 35t-40 102q0 101 80.5 205.5t320.5 330.5l82 78 l-176 690q-122 -6 -187 -67t-65 -152q0 -43 22 -68.5t60 -25.5q10 0 19 1.5t13 2.5l3 2q2 -6 2 -18q0 -42 -42 -78.5t-114 -36.5q-99 0 -157 56t-58 149z" />
<glyph unicode="Y" horiz-adv-x="1400" d="M-41 1186q0 156 137 253t379 97h66q63 0 109 -32t59 -89l180 -741l29 43q315 471 315 745q0 21 -3 39.5t-6 26.5l-3 8q28 18 77 18q164 0 164 -137q0 -38 -15.5 -85.5t-38 -92t-66.5 -112.5t-81 -120.5t-102.5 -146t-111.5 -160.5l-123 -180l-54 -305q-11 -64 -12 -113 v-8q0 -42 5 -57l5 -17q-32 -20 -116 -20q-111 0 -143 50q-19 31 -19 88q0 37 8 85l51 297l-217 899q-108 -13 -164.5 -73t-56.5 -144q0 -43 22 -68.5t60 -25.5q10 0 19 1.5t12 2.5l4 2q2 -6 2 -18q0 -42 -42 -78.5t-114 -36.5q-99 0 -157 56t-58 149z" />
<glyph unicode="Z" horiz-adv-x="1198" d="M-61 121q0 49 35 84.5t102 38.5l772 1065q-204 12 -375 12q-101 0 -177 -13.5t-102 -26.5l-26 -13q-23 25 -23 88q0 82 58.5 131t173.5 49q114 0 251.5 -29t218.5 -57l81 -29q3 5 9 12.5t27.5 27.5t46 35t64 27.5t82.5 12.5q72 0 107.5 -35.5t35.5 -85.5 q0 -52 -37.5 -87.5t-109.5 -35.5l-766 -1065q208 -12 379 -12q101 0 177 13.5t102 26.5l26 13q23 -25 23 -88q0 -82 -58.5 -131t-173.5 -49q-114 0 -251.5 29t-218.5 57l-81 29q-3 -5 -9 -12.5t-27.5 -27.5t-46 -35t-64 -27.5t-82.5 -12.5q-72 0 -107.5 35.5t-35.5 85.5z " />
<glyph unicode="[" horiz-adv-x="827" d="M82 -266q0 25 16 127l254 1460q10 57 16 108.5t6 74.5l1 22q58 10 117 10h247q36 0 64.5 4.5t38.5 9.5l10 4q16 -14 16 -53q0 -131 -170 -131h-106l-270 -1567h129q36 0 64 4.5t38 9.5l10 5q17 -14 17 -53q0 -131 -170 -131h-228q-54 0 -77 22.5t-23 73.5z" />
<glyph unicode="\" horiz-adv-x="874" d="M41 1503q12 24 49 47q29 17 51 24t40 2t31 -14.5t27.5 -35t24.5 -49t27 -66.5l457 -1192q24 -63 45.5 -109.5t30.5 -61.5l10 -15q-13 -22 -52 -49q-29 -17 -50.5 -24t-40 -1.5t-31 14.5t-27 34.5t-24.5 49.5t-27 68l-455 1192q-24 62 -45.5 108.5t-31.5 62.5z" />
<glyph unicode="]" horiz-adv-x="827" d="M-41 -328q0 131 170 131h107l270 1567h-129q-36 0 -64.5 -4.5t-38.5 -9.5l-10 -4q-16 14 -16 53q0 131 170 131h227q54 0 77 -22.5t23 -73.5q0 -25 -16 -127l-254 -1460q-10 -57 -15.5 -108.5t-5.5 -74.5l-1 -22q-58 -10 -117 -10h-248q-36 0 -64.5 -5t-38.5 -9l-10 -5 q-16 14 -16 53z" />
<glyph unicode="^" horiz-adv-x="1026" d="M61 885l443 608q41 12 82 12q111 0 151 -92l228 -528q-29 -27 -86 -27q-60 0 -92.5 21.5t-51.5 64.5l-155 369l-263 -369q-59 -86 -170 -86q-25 0 -46.5 7t-30.5 13z" />
<glyph unicode="_" horiz-adv-x="917" d="M-164 -209q0 131 170 131h701q36 0 64 5t38 9l10 5q17 -15 17 -54q0 -131 -170 -131h-701q-36 0 -64 -4.5t-38 -9.5l-10 -4q-17 14 -17 53z" />
<glyph unicode="`" horiz-adv-x="528" d="M143 1532q51 20 127 20q71 0 105.5 -22t54.5 -72l98 -256q-26 -14 -77 -14q-66 0 -101 51z" />
<glyph unicode="a" horiz-adv-x="1140" d="M-61 352q0 133 29.5 245t79 189.5t115 132t137 80t144.5 25.5q142 0 222 -100q25 55 66.5 77.5t117.5 22.5q31 0 56.5 -5t35.5 -10l10 -5q-27 -37 -47 -148l-88 -498q-7 -37 -7 -67q0 -42 14 -68q24 -45 81 -45q55 0 115.5 48.5t99.5 129.5q21 0 32 -13t7 -40 q-6 -34 -26 -73.5t-54.5 -80t-76.5 -74t-97 -54.5t-112 -21q-103 0 -168 61t-72 170q-62 -113 -143 -172t-170 -59q-133 0 -217 90t-84 262zM201 348q0 -85 31.5 -127.5t89.5 -42.5q52 0 101 50t85.5 130t63 164.5t42.5 167.5l19 96q-43 99 -135 99q-53 0 -105.5 -38.5 t-95 -105.5t-69.5 -170.5t-27 -222.5z" />
<glyph unicode="b" horiz-adv-x="1116" d="M-61 244q0 38 10 106l196 1155q10 57 10.5 101t-3.5 60l-5 15q31 19 107 19q112 0 142 -45q18 -27 19 -78q0 -35 -9 -80l-123 -719q65 120 150 183t183 63q141 0 218 -90.5t77 -251.5q0 -79 -18 -178q45 4 87.5 22.5t72 41t52 44.5t33.5 37l11 15q20 0 30 -14.5t7 -37.5 q-10 -61 -104 -126.5t-214 -75.5q-64 -187 -202.5 -298.5t-317.5 -111.5q-282 0 -364 102q-45 54 -45 142zM188 174q0 -32 5 -57q51 -15 96 -15q105 0 194 103t133 264q-73 55 -73 158q0 52 27 90.5t75 48.5q-17 100 -100 100q-89 0 -191 -161q-107 -167 -155 -424 q-11 -62 -11 -107z" />
<glyph unicode="c" horiz-adv-x="923" d="M-61 434q0 130 45.5 242t121 187t174 118t203.5 43q127 0 208 -65.5t81 -165.5q0 -93 -48.5 -153t-127.5 -60q-21 0 -38.5 5t-28 12t-18 14.5t-10.5 12.5l-3 5l8 8t18 23t23 39t18 55.5t8 72.5q0 43 -26.5 69t-67.5 26q-102 0 -188 -127.5t-86 -319.5q0 -146 79.5 -229.5 t221.5 -83.5q141 0 241 58t150 136q35 0 35 -34q0 -8 -2 -19q-6 -29 -31.5 -66.5t-72.5 -79t-107 -76.5t-144 -58t-174 -23q-204 0 -333 119t-129 315z" />
<glyph unicode="d" horiz-adv-x="1142" d="M-61 352q0 133 29.5 245t79 189.5t115 132t137 80t144.5 25.5q136 0 213 -90l99 571q10 57 10.5 101t-4.5 60l-4 15q30 19 106 19q112 0 142 -45q18 -27 18 -78q0 -35 -8 -80l-197 -1139q-6 -36 -6 -64q0 -116 94 -116q55 0 115.5 48.5t99.5 129.5q21 0 32 -13t7 -40 q-6 -34 -26 -73.5t-54.5 -80t-76.5 -74t-97 -54.5t-112 -21q-103 0 -168.5 61.5t-71.5 171.5q-64 -114 -145 -173.5t-170 -59.5q-133 0 -217 90t-84 262zM201 348q0 -85 31.5 -127.5t89.5 -42.5q52 0 101 50t85.5 130t63 164.5t42.5 167.5l19 96q-43 99 -135 99 q-53 0 -105.5 -38.5t-95 -105.5t-69.5 -170.5t-27 -222.5z" />
<glyph unicode="e" horiz-adv-x="923" d="M-61 442q0 131 47.5 243t125 184.5t175 113.5t200.5 41q146 0 219.5 -63t73.5 -150q0 -268 -575 -377q9 -119 87.5 -195.5t205.5 -76.5q78 0 146 17.5t116 47.5t81 62t56 67q35 0 35 -34q0 -8 -2 -19q-6 -28 -31.5 -66t-73 -79.5t-107.5 -76.5t-144 -58t-173 -23 q-205 0 -333.5 119t-128.5 323zM207 530q179 42 266.5 127.5t87.5 192.5q0 32 -20 52t-52 20q-45 0 -90.5 -26t-85.5 -73.5t-69 -124t-37 -168.5z" />
<glyph unicode="f" horiz-adv-x="612" d="M-389 -600q0 19 4 33.5t8 18.5l4 5q27 -26 72 -26q60 0 97.5 48.5t58.5 166.5l221 1276h-131q-15 16 -15 43t18.5 43t51.5 16h94l35 201q43 251 157 363t296 112q132 0 204 -67t72 -165q0 -94 -50.5 -153.5t-129.5 -59.5q-33 0 -58 12.5t-34 24.5l-8 13q3 3 9 9.5 t20.5 27t25.5 43t20 56t9 66.5q0 45 -21.5 67.5t-58.5 22.5q-54 0 -102 -67.5t-74 -218.5l-50 -287h205q14 -16 14 -43t-18 -43t-51 -16h-168l-225 -1278q-34 -194 -117 -277.5t-219 -83.5q-77 0 -121.5 33t-44.5 84z" />
<glyph unicode="g" horiz-adv-x="1140" d="M-61 352q0 133 29.5 245t79 189.5t115 132t137 80t144.5 25.5q142 0 222 -100q25 55 66.5 77.5t117.5 22.5q31 0 56.5 -5t35.5 -10l10 -5q-29 -37 -47 -148l-119 -684q24 9 62.5 26t127.5 65.5t144 92.5q20 0 31.5 -12.5t7.5 -34.5q-5 -26 -67 -73q-114 -86 -326 -189 l-4 -24q-61 -361 -205 -550.5t-369 -189.5q-104 0 -166.5 59.5t-62.5 155.5q0 170 172 318q72 63 156.5 114.5t218.5 116.5l24 146q-125 -193 -290 -193q-133 0 -217 90t-84 262zM74 -489q0 -42 24 -67.5t70 -25.5q108 0 188.5 127.5t126.5 372.5q-208 -108 -288 -188 q-121 -118 -121 -219zM201 348q0 -85 31.5 -127.5t89.5 -42.5q52 0 101 50t85.5 130t63 164.5t42.5 167.5l19 96q-43 99 -135 99q-53 0 -105.5 -38.5t-95 -105.5t-69.5 -170.5t-27 -222.5z" />
<glyph unicode="h" horiz-adv-x="1165" d="M-51 203l227 1302q10 57 10.5 101t-4.5 60l-4 15q31 19 107 19q113 0 142 -44q17 -26 17 -78q0 -35 -8 -81l-135 -770q44 73 101.5 136.5t139 112t160.5 48.5q96 0 153.5 -57.5t57.5 -153.5q0 -56 -18 -166l-49 -289q-7 -38 -7 -68q0 -112 91 -112q127 0 215 178 q21 0 32 -13t7 -40q-8 -42 -39 -93.5t-77 -98.5t-112 -79t-133 -32q-115 0 -181.5 70t-66.5 186q0 39 31 233l39 226q6 34 6 58q0 26 -7 42q-13 29 -48 29q-48 0 -106.5 -53.5t-112.5 -141t-100 -208.5t-68 -246q-10 -57 -10.5 -101.5t3.5 -59.5l5 -16q-31 -18 -107 -18 q-113 0 -142 44q-17 26 -17 78q0 34 8 81z" />
<glyph unicode="i" horiz-adv-x="546" d="M-41 256q0 90 18 195l66 378q10 58 10.5 102.5t-3.5 59.5l-5 15q31 18 107 18q113 0 142 -44q17 -26 18 -78q0 -35 -9 -81l-80 -463q-6 -36 -6 -64q0 -116 94 -116q55 0 115.5 48.5t99.5 129.5q21 0 32 -13t7 -40q-6 -34 -26 -73.5t-54.5 -80t-76.5 -74t-97 -54.5 t-112 -21q-108 0 -174 67.5t-66 188.5zM115 1331q0 62 42 105t101 43q58 0 92.5 -36.5t34.5 -92.5q0 -57 -41 -99.5t-106 -42.5q-55 0 -89 34.5t-34 88.5z" />
<glyph unicode="j" horiz-adv-x="557" d="M-625 -502q0 170 172 318q73 63 157.5 114t217.5 117l131 782q10 57 10.5 101.5t-3.5 59.5l-5 16q31 18 107 18q113 0 142 -44q17 -27 17 -78q0 -34 -8 -81l-110 -649q24 9 62.5 26t127.5 65.5t144 92.5q21 0 31.5 -13t6.5 -34q-5 -26 -67 -73q-114 -86 -326 -189l-4 -24 q-61 -361 -205 -550.5t-368 -189.5q-104 0 -167 59.5t-63 155.5zM-510 -489q0 -42 24 -67.5t70 -25.5q109 0 190.5 127.5t125.5 372.5q-204 -106 -289 -188q-121 -118 -121 -219zM125 1331q0 62 42 105t101 43q58 0 92.5 -36.5t34.5 -92.5q0 -57 -41 -99.5t-106 -42.5 q-55 0 -89 34.5t-34 88.5z" />
<glyph unicode="k" horiz-adv-x="1056" d="M-51 203l227 1302q10 57 10.5 101t-4.5 60l-4 15q31 19 107 19q113 0 142 -44q17 -26 17 -78q0 -35 -8 -81l-168 -960h82q64 0 123 116l80 164q59 119 112 163t123 44q62 0 98 -37.5t36 -101.5q0 -40 -18 -75.5t-36 -51.5l-18 -15q-1 3 -2.5 8t-9 18t-17.5 22.5 t-28.5 17.5t-40.5 8q-87 0 -144 -123l-35 -73q-26 -59 -71 -93q101 -24 139 -133l23 -71q23 -74 58 -110t95 -36q63 0 123 51.5t96 126.5q21 0 32 -13t7 -40q-7 -42 -38.5 -93.5t-78.5 -98.5t-113.5 -79t-135.5 -32q-213 0 -285 240l-33 108q-14 45 -36.5 66.5t-61.5 21.5 h-43l-41 -241q-10 -57 -10.5 -101.5t3.5 -59.5l5 -16q-31 -18 -107 -18q-113 0 -142 44q-17 26 -17 78q0 34 8 81z" />
<glyph unicode="l" horiz-adv-x="559" d="M-41 256q0 90 18 195l187 1054q10 57 10.5 101t-4.5 60l-4 15q30 19 106 19q112 0 142 -45q18 -27 18 -78q0 -35 -8 -80l-201 -1139q-6 -35 -6 -63q1 -43 15 -71q24 -46 79 -46q63 0 126 48t102 130q21 0 32 -13t7 -40q-8 -42 -40.5 -93.5t-81 -98.5t-117.5 -79t-140 -32 q-108 0 -174 67.5t-66 188.5z" />
<glyph unicode="m" horiz-adv-x="1648" d="M-51 203l108 626q10 57 10.5 101.5t-3.5 59.5l-5 16q31 18 107 18q113 0 142 -44q17 -26 18 -78q0 -35 -9 -81l-8 -49q38 64 84 116.5t113 94t133 41.5q97 0 155 -57t58 -156q0 -7 -1 -22t-1 -23q59 104 148 181t188 77q96 0 153.5 -57.5t57.5 -153.5q0 -50 -19 -166 l-49 -289q-6 -38 -6 -67q0 -113 90 -113q61 0 118 47.5t97 130.5q21 0 32 -13t7 -40q-7 -40 -38 -91t-77 -99t-112 -80.5t-133 -32.5q-115 0 -181.5 70t-66.5 186q0 47 31 233l38 226q5 31 5 54q0 75 -54 75q-51 0 -115 -88t-121.5 -239.5t-88.5 -321.5q-10 -57 -10 -101.5 t4 -59.5l4 -16q-31 -18 -107 -18q-113 0 -142 44q-17 26 -17 78q0 35 8 81l90 512q6 34 6 59q0 22 -5 38q-11 32 -48 32q-51 0 -113.5 -81.5t-122 -233.5t-92.5 -334q-10 -57 -10.5 -101.5t3.5 -59.5l5 -16q-31 -18 -107 -18q-113 0 -142 44q-17 26 -17 78q0 34 8 81z" />
<glyph unicode="n" horiz-adv-x="1165" d="M-51 203l108 626q10 57 10.5 101.5t-3.5 59.5l-5 16q31 18 107 18q113 0 142 -44q17 -26 18 -78q0 -35 -9 -81l-16 -94q32 53 74 103t93.5 95t113 72t120.5 27q96 0 153.5 -57.5t57.5 -153.5q0 -56 -18 -166l-49 -289q-7 -39 -7 -69q0 -111 91 -111q63 0 118.5 48 t96.5 130q21 0 32 -13t7 -40q-6 -40 -37 -91.5t-77.5 -99t-113 -80t-133.5 -32.5q-115 0 -181.5 70t-66.5 186q0 57 31 233l39 226q6 34 6 58q0 26 -7 42q-13 29 -48 29q-64 0 -142.5 -89t-146.5 -241.5t-98 -318.5q-10 -57 -10.5 -101.5t3.5 -59.5l5 -16q-31 -18 -107 -18 q-113 0 -142 44q-17 26 -17 78q0 34 8 81z" />
<glyph unicode="o" horiz-adv-x="1087" d="M-61 391q0 282 154 457.5t413 175.5q177 0 277 -106.5t100 -284.5q0 -54 -11 -129q43 6 84.5 25t70 41.5t50.5 44t33 35.5l10 14q20 0 30 -14.5t7 -37.5q-10 -59 -99.5 -123.5t-205.5 -78.5q-54 -188 -193.5 -299t-343.5 -111q-168 0 -272 102.5t-104 288.5zM201 303 q0 -97 35 -149t100 -52q85 0 151 91t105 272q-78 60 -78 162q0 54 27 91.5t77 47.5q-8 77 -42 117.5t-91 40.5q-84 0 -155 -98t-111 -312q-18 -95 -18 -211z" />
<glyph unicode="p" horiz-adv-x="1142" d="M-174 -514l233 1343q10 57 10.5 101.5t-3.5 59.5l-5 16q31 18 107 18q114 0 142 -44q17 -26 17 -76q0 -36 -8 -83l-6 -37q65 117 149 178.5t181 61.5q141 0 218 -93t77 -255q0 -87 -16 -172q44 5 86.5 23.5t71.5 41t51.5 44.5t33.5 37l11 14q20 0 29.5 -14t6.5 -38 q-10 -60 -102.5 -125.5t-210.5 -76.5q-59 -189 -187 -299.5t-280 -110.5q-144 0 -237 100l-109 -622q-10 -57 -10.5 -101t4.5 -59l4 -16q-31 -19 -107 -19q-113 0 -142 45q-17 26 -17 77q0 34 8 81zM215 227q55 -88 156 -88q85 0 160.5 90t113.5 236q-76 60 -76 162 q0 52 27.5 90.5t75.5 48.5q-17 100 -101 100q-88 0 -190 -161q-107 -172 -152 -400z" />
<glyph unicode="q" horiz-adv-x="1118" d="M-61 352q0 133 29.5 245t79 189.5t115 132t137 80t144.5 25.5q142 0 224 -102q23 56 65.5 79t118.5 23q31 0 56.5 -5t35.5 -10l10 -5q-27 -37 -47 -148l-243 -1378q-10 -57 -10.5 -101t4.5 -59l4 -16q-31 -19 -107 -19q-113 0 -143 45q-17 27 -17 78q0 34 8 80l125 702 q-125 -188 -288 -188q-133 0 -217 90t-84 262zM201 348q0 -85 31.5 -127.5t89.5 -42.5q52 0 101 50t85.5 130t63 164.5t42.5 167.5l19 96q-43 99 -135 99q-53 0 -105.5 -38.5t-95 -105.5t-69.5 -170.5t-27 -222.5z" />
<glyph unicode="r" horiz-adv-x="907" d="M-51 203l108 626q10 57 10.5 101.5t-3.5 59.5l-5 16q31 18 107 18q113 0 142 -46q17 -28 18 -78q0 -34 -9 -79l-16 -90q91 153 186.5 223t174.5 70q76 0 119.5 -41.5t43.5 -118.5q0 -86 -47.5 -141t-122.5 -55q-24 0 -47 3t-34 6l-11 3q27 47 27 102q0 45 -43 45 q-59 0 -146 -120q-68 -95 -114 -210.5t-80 -314.5q-9 -54 -9 -95t4 -55l5 -14q-31 -18 -107 -18q-113 0 -142 44q-17 26 -17 78q0 34 8 81z" />
<glyph unicode="s" horiz-adv-x="933" d="M-102 242q0 56 39.5 89.5t95.5 33.5q31 0 55.5 -7.5t33.5 -14.5l9 -7q-10 -23 -10 -60q0 -78 42.5 -125.5t127.5 -48.5q83 0 127.5 37t44.5 92q0 76 -101 129l-200 107q-85 46 -131.5 104t-46.5 152q0 131 112.5 216t321.5 85q91 0 165 -22.5t117.5 -59t67 -78 t23.5 -82.5q0 -56 -39.5 -89.5t-96.5 -33.5q-31 0 -55.5 7.5t-33.5 14.5l-9 7q10 23 10 60q0 76 -45.5 125t-128.5 49q-81 0 -124.5 -36t-43.5 -93q0 -43 24 -72.5t77 -56.5l176 -93q110 -57 156.5 -121.5t46.5 -148.5q0 -130 -111.5 -215.5t-323.5 -85.5q-94 0 -168 22.5 t-117 59t-65 77.5t-22 83z" />
<glyph unicode="t" horiz-adv-x="610" d="M-82 965q0 27 18.5 43t51.5 16h96l20 111q11 57 11.5 101t-4.5 60l-5 15q31 18 107 18q113 0 143 -45q17 -26 18 -76q0 -35 -9 -82l-19 -102h203q14 -16 14 -43t-18 -43t-51 -16h-166l-99 -564q-5 -28 -5 -52q0 -48 20 -80q30 -48 102 -48q81 0 144 51.5t102 126.5 q21 0 32 -14t5 -39q-12 -48 -47.5 -100.5t-86 -98t-119 -75t-138.5 -29.5q-116 0 -193.5 74.5t-77.5 195.5q0 86 23 219l76 433h-134q-14 16 -14 43z" />
<glyph unicode="u" horiz-adv-x="1148" d="M-41 238q0 104 25 251l59 340q10 57 10.5 101.5t-3.5 59.5l-5 16q31 18 107 18q113 0 142 -44q17 -26 18 -78q0 -35 -9 -81l-82 -473q-7 -38 -7 -68q0 -36 10 -60q18 -42 65 -42q62 0 151 137q67 102 125.5 251.5t81.5 283.5q8 50 8 89t-4 53l-4 14q31 18 107 18 q113 0 142 -44q17 -26 17 -78q0 -35 -8 -81l-80 -463q-6 -36 -6 -64q0 -116 94 -116q55 0 115.5 48.5t99.5 129.5q21 0 32 -13t7 -40q-6 -34 -26 -73.5t-54.5 -80t-76.5 -74t-97 -54.5t-112 -21q-108 0 -174 67.5t-66 188.5q0 41 2 70q-48 -95 -92 -152q-65 -89 -135 -131.5 t-154 -42.5q-102 0 -162.5 65.5t-60.5 172.5z" />
<glyph unicode="v" horiz-adv-x="1077" d="M-20 389q0 146 30 338l17 102q9 59 9.5 103.5t-3.5 59.5l-4 14q30 18 106 18q113 0 143 -46q18 -27 17 -77q0 -34 -8 -80l-31 -174q-23 -138 -23 -213q0 -256 170 -256q99 0 178.5 104.5t106.5 286.5q-90 137 -90 303q0 66 38 109t101 43q57 0 93 -37t36 -117 q0 -142 -43 -301q50 -67 142 -67q44 0 82.5 16.5t62 40.5t41 48t24.5 41l7 16q22 0 31.5 -17t5.5 -35q-13 -69 -87.5 -134.5t-187.5 -65.5q-41 0 -80 12t-58 24l-18 13q-60 -152 -122 -244q-151 -217 -353 -217q-155 0 -244 105t-89 284z" />
<glyph unicode="w" horiz-adv-x="1632" d="M-20 379q0 138 32 348l17 102q9 57 9.5 101.5t-3.5 59.5l-4 16q30 18 106 18q113 0 143 -45q18 -27 17 -78q0 -35 -8 -80l-29 -166q-24 -139 -24 -256q0 -121 35.5 -171t105.5 -50q73 0 130.5 75t90.5 206q6 122 29 268l16 102q10 57 10.5 101.5t-3.5 59.5l-5 16 q31 18 107 18q113 0 142 -44q17 -26 18 -78q0 -35 -9 -81l-29 -166q-26 -149 -26 -264q0 -111 36 -162t107 -51q91 0 160 106.5t92 284.5q-90 133 -90 303q0 67 38.5 109.5t100.5 42.5q58 0 93.5 -38t35.5 -116q0 -142 -43 -301q50 -67 140 -67q44 0 82.5 16.5t62.5 40.5 t41.5 48t25.5 41l7 16q23 0 31.5 -16t5.5 -36q-11 -67 -84.5 -133.5t-186.5 -66.5q-86 0 -155 49q-44 -130 -91 -203q-78 -126 -161.5 -192t-198.5 -66q-107 0 -180 60.5t-103 166.5q-141 -227 -333 -227q-151 0 -226 99t-75 280z" />
<glyph unicode="x" horiz-adv-x="933" d="M-164 109q0 61 41 119.5t148 136.5l149 108l-98 309q-17 56 -34.5 76.5t-47.5 20.5q-10 0 -20 -2.5t-14 -5.5l-5 -3q-4 16 -4 27q0 50 45 89.5t117 39.5q83 0 126 -32t72 -120l80 -243l72 51q139 99 139 266q0 33 -8 60q29 18 78 18q60 0 89.5 -29t29.5 -80 q0 -61 -41 -119.5t-148 -136.5l-178 -129l57 -168q32 -95 79 -139.5t116 -44.5q71 0 129 42.5t108 135.5q21 0 32 -13t7 -40q-21 -112 -135 -207.5t-248 -95.5q-126 0 -207.5 70t-130.5 223l-26 80l-41 -29q-139 -99 -139 -266q0 -33 8 -60q-29 -18 -78 -18q-60 0 -89.5 29 t-29.5 80z" />
<glyph unicode="y" horiz-adv-x="1146" d="M-41 238q0 104 25 251l59 340q10 57 10.5 101.5t-3.5 59.5l-5 16q31 18 107 18q113 0 142 -44q17 -27 17 -78q0 -34 -8 -81l-82 -473q-7 -39 -7 -69q0 -101 75 -101q62 0 151 137q64 99 119 233.5t84 280.5q11 57 11.5 101.5t-4.5 59.5l-5 16q31 18 107 18q113 0 142 -44 q17 -27 17 -78q0 -34 -8 -81l-110 -649q24 9 62 26t127 65.5t144 92.5q21 0 32 -13t7 -34q-5 -26 -67 -73q-114 -86 -326 -189l-4 -24q-61 -361 -205 -550.5t-368 -189.5q-104 0 -167 59.5t-63 155.5q0 170 172 318q73 63 157.5 114t217.5 117l43 264q-38 -73 -84 -137 q-65 -89 -135 -131.5t-154 -42.5q-102 0 -162.5 65.5t-60.5 172.5zM80 -489q0 -42 24 -67.5t70 -25.5q109 0 190 127.5t125 372.5q-202 -105 -288 -188q-121 -118 -121 -219z" />
<glyph unicode="z" horiz-adv-x="966" d="M-205 -502q0 83 45.5 166t122.5 148q128 109 377 231q-7 52 -31 90q-62 -16 -108 -16q-39 0 -59.5 17t-20.5 44q165 72 279 244.5t114 353.5q0 70 -36.5 108t-104.5 38q-96 0 -182.5 -109t-86.5 -252l5 -39q-19 -10 -50 -10q-66 0 -104.5 38t-38.5 101q0 149 134.5 261 t330.5 112q186 0 281.5 -94t95.5 -248q0 -116 -50.5 -219.5t-140.5 -183.5q-69 -63 -151 -103q46 -23 84 -61q129 49 256.5 119t189.5 122q21 0 32 -13t7 -34q-5 -26 -67 -73q-102 -78 -357 -207q45 -82 45 -197q0 -105 -42 -204.5t-114 -175.5t-175.5 -122.5t-219.5 -46.5 q-130 0 -195 57t-65 158zM-90 -489q0 -44 25.5 -68.5t74.5 -24.5q85 0 162.5 68t125.5 183.5t48 246.5v14q-223 -110 -313 -200q-123 -120 -123 -219z" />
<glyph unicode="{" horiz-adv-x="796" d="M123 -119q0 85 34.5 195t68.5 209.5t34 156.5q0 39 -15 56.5t-46 17.5q-25 0 -41.5 14t-16.5 45q0 44 31 72q85 0 123.5 44.5t38.5 137.5q0 41 -8.5 183t-8.5 217q0 57 18.5 110.5t54 98t96 71.5t137.5 27q35 0 69 -6t68.5 -19.5t56 -40.5t21.5 -65q0 -11 -3 -19.5 t-5 -11.5l-3 -2q-39 33 -127 33q-79 0 -110 -47.5t-31 -151.5q0 -56 7 -151.5t7 -149.5q0 -130 -54.5 -218.5t-153.5 -127.5q106 -46 106 -188q0 -73 -25.5 -151l-51 -156t-25.5 -152q0 -143 135 -143q43 0 74 8t41 16l10 8q10 -7 10 -32q0 -51 -59 -91t-172 -40 q-148 0 -216.5 68t-68.5 175z" />
<glyph unicode="|" horiz-adv-x="763" d="M123.5 -267q1.5 50 15.5 128l254 1460q11 64 17 114t6 69v18q22 14 67 14q65 0 91.5 -22.5t25 -72.5t-15.5 -128l-254 -1460q-11 -64 -17 -114t-6 -69v-18q-22 -14 -67 -14q-65 0 -91.5 22.5t-25 72.5z" />
<glyph unicode="}" horiz-adv-x="796" d="M-41 -233q0 11 2.5 19t4.5 10l3 3q39 -32 127 -32q79 0 110.5 47t31.5 151q0 56 -7.5 151.5t-7.5 149.5q0 130 55 218.5t154 127.5q-106 46 -106 189q0 73 25.5 151l51 156t25.5 152q0 143 -135 143q-43 0 -74 -8.5t-41 -16.5l-10 -8q-10 8 -10 33q0 51 59 91t172 40 q148 0 216.5 -68.5t68.5 -175.5q0 -67 -21.5 -151.5t-47 -151t-47 -139.5t-21.5 -119q0 -39 15 -56.5t46 -17.5q57 0 57 -59q0 -45 -30 -72q-85 0 -123.5 -44.5t-38.5 -137.5q0 -41 8 -182.5t8 -216.5q0 -57 -18 -110.5t-54 -98.5t-96 -72t-137 -27q-35 0 -69 6t-68.5 20 t-56 41t-21.5 65z" />
<glyph unicode="~" horiz-adv-x="1097" d="M61 483q0 92 77 158t198 66q55 0 107.5 -18t88 -39.5t85.5 -39.5t100 -18q34 0 66.5 12t54.5 29t38.5 33.5t24.5 28.5l8 12q31 0 48.5 -20t17.5 -50q0 -92 -77 -157.5t-198 -65.5q-52 0 -105 18t-90.5 39t-87.5 39t-98 18q-35 0 -67.5 -11.5t-54 -28.5t-38.5 -34t-25 -28 l-7 -12q-30 0 -48 18t-18 51z" />
<glyph unicode="&#xa1;" horiz-adv-x="647" d="M0 -381q0 37 16 96l207 727q20 72 29.5 131t8.5 82l-1 23q18 14 51 14q72 0 72 -96q0 -58 -10 -158l-84 -733q-8 -68 -8 -121q0 -23 1.5 -40.5t3.5 -23.5l1 -7q-33 -21 -117 -21q-87 0 -128.5 30.5t-41.5 96.5zM213 907q0 57 41 99.5t106 42.5q55 0 89 -34.5t34 -88.5 q0 -62 -42 -105t-101 -43q-58 0 -92.5 36.5t-34.5 92.5z" />
<glyph unicode="&#xa2;" horiz-adv-x="915" d="M-20 455q0 120 37 223.5t100 176t146 119.5t177 62q10 57 15.5 103t5.5 63v17q22 14 67 14q62 0 89 -21.5t27.5 -67t-11.5 -116.5q83 -25 131.5 -83t48.5 -132q0 -93 -48.5 -153t-127.5 -60q-21 0 -38.5 5t-28 12t-18 14.5t-10.5 12.5l-3 5q3 3 8 8.5t18 24.5t23 39.5 t18 51.5t8 63q0 51 -24 78.5t-70 27.5q-102 0 -188 -124.5t-86 -315.5q0 -158 71.5 -239t208.5 -81q43 0 81 9t62 21.5t42 25t26 21.5l8 9q39 0 33 -37q-11 -65 -100.5 -134t-224.5 -77q-9 -57 -13.5 -102.5t-5.5 -62.5v-17q-22 -14 -67 -14q-65 0 -91.5 22.5t-25 71 t15.5 125.5q-133 43 -209.5 152.5t-76.5 259.5z" />
<glyph unicode="&#xa3;" horiz-adv-x="1300" d="M41 121q0 52 41 87.5t123 35.5l67 383h-192q-14 26 -14 53t18 43t51 16h156l59 322q24 129 80.5 225t132 148.5t155 77t163.5 24.5q179 0 279 -93t100 -233q0 -125 -61.5 -201.5t-162.5 -76.5q-32 0 -57.5 8t-39 19t-22.5 22t-11 19l-3 8q5 1 13.5 5t30 21t38 41.5t30 72 t13.5 107.5q0 168 -151 168q-81 0 -147 -75.5t-95 -233.5l-70 -375h318q14 -26 14 -53t-18.5 -43t-51.5 -16h-282l-70 -400q200 -12 379 -12q102 0 177.5 13.5t100.5 26.5l25 13q23 -25 23 -88q0 -82 -58.5 -131t-173.5 -49q-114 0 -241.5 29t-198.5 57l-70 29 q-3 -5 -10 -12.5t-29.5 -27.5t-48 -35t-66 -27.5t-83.5 -12.5q-79 0 -119.5 36t-40.5 85z" />
<glyph unicode="&#xa4;" horiz-adv-x="1583" d="M20 1145q0 78 41 147t122 124.5t215.5 87.5t306.5 32q199 0 354 -40t250 -111t143.5 -162t48.5 -199q0 -238 -172 -384t-483 -146h-137l-19 -99h496q14 -26 14 -53t-18.5 -43t-51.5 -16h-458l-13 -68q-11 -64 -11.5 -112.5t4.5 -65.5l5 -17q-32 -20 -116 -20 q-111 0 -143 50.5t-11 172.5l10 60h-219q-14 26 -14 53t18 43t51 16h183l18 99h-219q-14 26 -14 53t18 43t51 16h183l88 500q11 63 11.5 111t-4.5 65l-5 16q32 21 116 21q111 0 143.5 -50.5t10.5 -172.5l-86 -490h57q103 0 186 37t135.5 99t80.5 140.5t28 164.5 q0 376 -516 376q-89 0 -162 -16t-121 -42t-81 -60.5t-47.5 -70.5t-14.5 -73q0 -43 22 -68.5t60 -25.5q10 0 19 1.5t13 3.5l3 1q2 -6 2 -18q0 -42 -41.5 -78.5t-113.5 -36.5q-99 0 -157.5 56t-58.5 149z" />
<glyph unicode="&#xa5;" horiz-adv-x="1380" d="M-61 1186q0 156 137 253t379 97h63q64 0 110.5 -31.5t59.5 -89.5l180 -741l29 43q146 213 230.5 406t84.5 339q0 21 -3 39.5t-6 26.5l-3 8q29 18 78 18q164 0 164 -137q0 -30 -7.5 -63t-28.5 -76t-38.5 -75.5t-57.5 -92t-64 -94t-79.5 -112.5t-83.5 -118h199 q14 -26 14 -53t-18 -43t-51 -16h-219l-97 -139h326q14 -27 14 -54t-18 -43t-51 -16h-297l-35 -207q-11 -64 -11.5 -112.5t4.5 -65.5l5 -17q-33 -20 -117 -20q-111 0 -142.5 50t-10.5 173l32 199h-331q-15 26 -15 53t18.5 43.5t51.5 16.5h291l-33 139h-268q-15 26 -15 53 t18.5 43t51.5 16h186l-153 633q-106 -13 -164 -73.5t-58 -143.5q0 -43 22 -68.5t60 -25.5q10 0 19 1.5t13 2.5l3 2q2 -6 2 -18q0 -42 -41.5 -78.5t-113.5 -36.5q-99 0 -157 56t-58 149z" />
<glyph unicode="&#xa6;" horiz-adv-x="761" d="M123 -267q1 50 16 128l78 426q12 64 17.5 114t5.5 68v18q22 15 67 15q65 0 91.5 -22.5t25.5 -72.5t-16 -128l-78 -426q-12 -64 -18 -114t-6 -69l1 -18q-22 -14 -67 -14q-65 0 -91.5 22.5t-25.5 72.5zM297 767q1 50 16 128l78 426q12 64 18 114t5 69v18q22 14 67 14 q65 0 91.5 -22.5t25.5 -72.5t-16 -128l-78 -426q-12 -64 -18 -114t-6 -69l1 -18q-22 -14 -67 -14q-65 0 -91.5 22.5t-25.5 72.5z" />
<glyph unicode="&#xa7;" horiz-adv-x="1241" d="M41 -37q0 90 56.5 139.5t142.5 49.5q39 0 69.5 -11.5t41.5 -22.5l11 -12q-3 -2 -9 -5.5t-20 -17.5t-25 -30.5t-20 -45t-9 -60.5q0 -70 48 -113t132 -43q87 0 145 50t58 124q0 109 -142 201l-182 119q-106 68 -154.5 143.5t-48.5 192.5q0 102 61.5 203t165.5 161 q-55 86 -55 186q0 166 123 265.5t332 99.5q165 0 281 -79t116 -206q0 -84 -52.5 -137t-145.5 -53q-41 0 -71.5 11.5t-41.5 22.5l-10 11l9 6t20.5 18t25.5 31t20 46t9 61q0 69 -49 112t-132 43q-87 0 -144.5 -50t-57.5 -124q0 -109 141 -200l182 -119q103 -66 153 -143 t50 -193q0 -101 -62.5 -203t-166.5 -164q57 -90 57 -184q0 -167 -122.5 -266t-334.5 -99q-165 0 -280 79t-115 206zM371 733q0 -86 36 -147t125 -117l187 -119q9 -5 20 -14.5t18 -15.5l7 -7q65 68 65 168q0 86 -36 147t-125 117l-187 119l-47 35q-63 -66 -63 -166z" />
<glyph unicode="&#xa8;" horiz-adv-x="741" d="M143 1331q0 56 38 93.5t91 37.5q49 0 80 -31.5t31 -78.5q0 -53 -36.5 -91t-94.5 -38q-47 0 -78 31t-31 77zM502 1331q0 57 37 94t92 37q49 0 79.5 -31.5t30.5 -78.5q0 -53 -37 -91t-94 -38q-47 0 -77.5 31t-30.5 77z" />
<glyph unicode="&#xa9;" horiz-adv-x="1880" d="M102 625q0 119 35.5 229t98 197.5t146.5 160t181 121t203 75t211 26.5q225 0 398 -83.5t267.5 -236.5t94.5 -354q0 -154 -68.5 -298t-185.5 -251t-282.5 -171.5t-350.5 -64.5q-216 0 -386 80.5t-266 229t-96 340.5zM330 631q0 -237 149.5 -392t397.5 -155 q150 0 272.5 58.5t199.5 155t118.5 215t41.5 243.5q0 250 -149.5 409.5t-409.5 159.5q-175 0 -317.5 -93t-222.5 -251.5t-80 -349.5zM539 647q0 104 36.5 196.5t98 157t143.5 101.5t170 37q136 0 205.5 -60.5t69.5 -154.5q0 -81 -43 -130t-111 -49q-28 0 -50 10.5t-30 21.5 l-8 11q8 7 20 20.5t32 55t20 84.5q0 103 -105 103q-87 0 -154 -100.5t-67 -254.5q0 -135 69 -210.5t199 -75.5q32 0 61 6t47 14t31.5 16.5t18.5 14.5l6 6q37 0 29 -43q-11 -57 -91 -113.5t-200 -56.5q-184 0 -290.5 112.5t-106.5 280.5z" />
<glyph unicode="&#xaa;" horiz-adv-x="946" d="M143 1071q0 120 33.5 218.5t88.5 160t121 94.5t134 33q108 0 178 -70q20 37 53 53.5t87 16.5q24 0 47 -3.5t34 -7.5l11 -3q-25 -31 -37 -113l-64 -399q-18 -119 35 -119q17 0 30 10t17 20l4 9q34 0 29 -43q-5 -48 -54.5 -89.5t-117.5 -41.5q-60 0 -100.5 37.5 t-55.5 103.5q-42 -68 -106 -104.5t-133 -36.5q-108 0 -171 73.5t-63 200.5zM356 1067q0 -58 22.5 -90.5t59.5 -32.5q49 0 95 57.5t75 135t45 161.5l15 78q-27 76 -109 76q-53 0 -100.5 -55t-75 -144t-27.5 -186z" />
<glyph unicode="&#xab;" horiz-adv-x="1251" d="M41 512l514 440q21 17 38.5 37.5t24.5 32.5l7 12q41 -16 61 -55q24 -53 2 -102t-92 -109l-299 -254l305 -350q24 -27 47.5 -43t34.5 -19l12 -2q1 -20 -26 -49q-48 -51 -115 -51q-66 0 -113 55zM457 512l422 338q26 21 46 41t27 29l6 10q34 -18 52 -53q53 -103 -90 -211 l-205 -154l200 -240q24 -27 47.5 -43t35.5 -18l12 -2q0 -20 -27 -49q-51 -54 -115 -54q-62 0 -112 58z" />
<glyph unicode="&#xac;" horiz-adv-x="997" d="M61 569q0 131 170 131h527q65 0 90.5 -19.5t25.5 -64.5q0 -39 -16 -133q-11 -63 -16.5 -113t-5.5 -68v-19q-23 -15 -68 -15q-64 0 -90.5 23t-26.5 74q0 18 23 170h-484q-36 0 -64 -4.5t-38 -9.5l-10 -5q-17 14 -17 53z" />
<glyph unicode="&#xad;" horiz-adv-x="978" d="M41 479q0 69 54 114.5t157 45.5h475q36 0 64.5 4.5t38.5 8.5l10 5q16 -10 16 -49q0 -69 -54 -114t-157 -45h-475q-36 0 -64.5 -4.5t-38.5 -9.5l-10 -5q-16 10 -16 49z" />
<glyph unicode="&#xae;" horiz-adv-x="1839" d="M102 625q0 119 35.5 229t98 197.5t146.5 160t181 121t203 75t211 26.5q225 0 398 -83.5t267.5 -236.5t94.5 -354q0 -154 -68.5 -298t-185.5 -251t-282.5 -171.5t-350.5 -64.5q-216 0 -386 80.5t-266 229t-96 340.5zM330 631q0 -237 149.5 -392t397.5 -155 q150 0 272.5 58.5t199.5 155t118.5 215t41.5 243.5q0 250 -149.5 409.5t-409.5 159.5q-175 0 -317.5 -93t-222.5 -251.5t-80 -349.5zM551 385l106 629q6 36 6.5 64t-1.5 38l-3 10q35 13 84 13h222q157 0 244 -71t87 -187q0 -100 -89 -178t-214 -97q58 -5 98.5 -33t53.5 -79 l18 -72q7 -31 15.5 -42t23.5 -11q10 0 19 8t13 16l3 8q14 0 22 -10.5t5 -28.5q-6 -44 -49 -76t-107 -32q-129 0 -170 154l-18 69q-18 72 -86 72h-37l-29 -168q-6 -35 -6 -63.5t3 -39.5l3 -12q-78 -12 -127 -12q-64 0 -82.5 29.5t-7.5 101.5zM815 662h43q98 0 154.5 62.5 t56.5 160.5q0 141 -190 141q0 -3 -1 -9t-1 -9z" />
<glyph unicode="&#xaf;" horiz-adv-x="876" d="M143 1262q0 131 170 131h435q36 0 64 4.5t38 8.5l10 5q17 -14 17 -53q0 -131 -170 -131h-435q-36 0 -64 -4.5t-38 -9.5l-10 -5q-17 15 -17 54z" />
<glyph unicode="&#xb0;" horiz-adv-x="710" d="M143 1292q0 129 91 217t212 88q116 0 190.5 -74t74.5 -184q0 -121 -88 -209t-224 -88q-110 0 -183 72t-73 178zM299 1309q0 -55 33 -92t84 -37q62 0 99.5 45.5t37.5 105.5q0 51 -31.5 88t-85.5 37q-60 0 -98.5 -43.5t-38.5 -103.5z" />
<glyph unicode="&#xb1;" horiz-adv-x="1093" d="M41 268q0 131 170 131h213q-27 47 -10 136l22 122h-192q-36 0 -64.5 -4.5t-38.5 -8.5l-10 -5q-16 14 -16 53q0 131 170 131h182l33 183q6 36 6.5 64.5t-2.5 39.5l-2 10q2 1 6 2.5t18.5 4.5t30.5 -1q141 -25 111 -190l-21 -113h195q36 0 64 4.5t38 9.5l10 5q17 -15 17 -54 q0 -131 -170 -131h-185l-34 -192q-9 -41 -9 -66h195q36 0 64.5 4.5t38.5 9.5l10 5q16 -14 16 -53q0 -132 -170 -132h-557q-36 0 -64.5 -4.5t-38.5 -8.5l-10 -5q-16 14 -16 53z" />
<glyph unicode="&#xb2;" horiz-adv-x="739" d="M143 836q0 32 41 84t113 108q131 101 181 171.5t50 127.5q0 107 -79 107q-44 0 -69.5 -35.5t-25.5 -93.5q0 -20 5 -38.5t9 -26.5l5 -9q-1 -3 -4.5 -8t-19 -13t-36.5 -8q-60 0 -85 33t-25 82q0 95 84 157t205 62q115 0 181 -58.5t66 -142.5q0 -94 -65 -174t-236 -170 q-36 -19 -70.5 -42.5t-50.5 -37.5l-16 -14q37 10 86 12q203 9 275 31q12 -16 12 -51q0 -62 -36.5 -99.5t-105.5 -37.5q-61 0 -138.5 7t-106.5 7q-19 0 -40 -3.5t-33 -6.5l-11 -4q-24 0 -42 24t-18 60z" />
<glyph unicode="&#xb3;" horiz-adv-x="743" d="M143 909q0 31 17 51.5t49 20.5q6 0 12 -1.5t9 -3.5l3 -1q0 -56 30 -89.5t85 -33.5q70 0 109 43t39 111q0 25 -7 46t-13 30l-7 8h-29q-34 0 -52.5 15.5t-18.5 43.5q0 12 2 18q70 0 115.5 49t45.5 117q0 101 -88 101q-42 0 -71 -35t-29 -82q0 -20 5 -36.5t11 -22.5l5 -7 q-13 -26 -62 -26q-110 0 -110 114q0 84 83.5 140.5t210.5 56.5q121 0 188.5 -59t67.5 -148q0 -63 -40 -119t-105 -84q49 -15 80 -55.5t31 -93.5q0 -96 -85 -161.5t-247 -65.5q-111 0 -172.5 46.5t-61.5 112.5z" />
<glyph unicode="&#xb4;" horiz-adv-x="612" d="M143 1202l164 256q31 49 71.5 71.5t110.5 22.5q34 0 64.5 -5t44.5 -10l14 -5l-280 -293q-48 -51 -113 -51q-23 0 -42 3.5t-27 6.5z" />
<glyph unicode="&#xb5;" horiz-adv-x="1157" d="M-174 -514l223 1343q10 57 10.5 101.5t-3.5 59.5l-5 16q41 18 107 18q51 0 85 -10.5t50.5 -26.5t21.5 -45t3 -54t-9 -67l-86 -516q-10 -59 10.5 -93t61.5 -34q62 0 151 137q68 103 125.5 248.5t81.5 286.5q8 50 8 89t-4 53l-4 14q31 18 107 18q113 0 142 -44.5t9 -158.5 l-77 -452q-32 -191 61 -191q26 0 45.5 14.5t25.5 29.5l7 14q45 0 39 -60q-6 -66 -74.5 -121t-163.5 -55q-85 0 -146 64.5t-61 177.5q0 53 2 84q-48 -95 -92 -152q-66 -90 -138 -132t-167 -42l-86 -522q-10 -57 -10.5 -101t4.5 -59l4 -16q-31 -19 -107 -19q-113 0 -142 44.5 t-9 158.5z" />
<glyph unicode="&#xb6;" horiz-adv-x="1275" d="M82 1053q0 213 154 348t385 135q61 0 252.5 -23.5t343.5 -23.5q53 0 92.5 8.5t52.5 16.5l14 8q23 -23 23 -68q0 -77 -54.5 -124.5t-146.5 -47.5q-28 0 -68 4l-249 -1433q-11 -64 -17 -114t-6 -69v-18q-22 -14 -67 -14q-65 0 -91.5 23t-25 72.5t15.5 127.5l260 1485 q-131 56 -233 69q-1 -13 -3 -28.5t-6 -37t-6 -36.5l-253 -1460q-11 -64 -17 -114.5t-6 -68.5v-18q-23 -14 -68 -14q-65 0 -91 22.5t-24.5 72.5t15.5 128l150 858q-152 0 -239 95t-87 239z" />
<glyph unicode="&#xb7;" horiz-adv-x="444" d="M82 750q0 65 43.5 109t105.5 44q59 0 95 -37.5t36 -95.5q0 -60 -42.5 -103.5t-110.5 -43.5q-57 0 -92 35.5t-35 91.5z" />
<glyph unicode="&#xb8;" horiz-adv-x="573" d="M2 -303q-3 22 6 33t19 12h10q3 -5 10 -13t31.5 -21t52.5 -13q42 0 67 27t25 67q0 38 -24 60t-70 22q-30 0 -51 -8q43 170 45 170h151l-22 -84q73 -4 115.5 -48.5t42.5 -115.5q0 -91 -67 -154t-167 -63q-69 0 -117.5 37t-56.5 92z" />
<glyph unicode="&#xb9;" horiz-adv-x="604" d="M145 1323q65 45 113 93t63 70.5t21 35.5q24 14 92 14q87 0 113 -40t8 -136l-78 -440q-9 -51 -9.5 -89.5t3.5 -51.5l4 -13q-24 -16 -90 -16q-89 0 -115 40t-8 136l74 407l-21 -16q-64 -53 -106 -53q-31 0 -48.5 17.5t-15.5 41.5z" />
<glyph unicode="&#xba;" horiz-adv-x="894" d="M143 1106q0 218 125.5 346.5t325.5 128.5q137 0 219 -84t82 -223q0 -204 -120.5 -338.5t-325.5 -134.5q-137 0 -221.5 81t-84.5 224zM358 1073q0 -81 29.5 -119.5t77.5 -38.5q75 0 128 73.5t75 201.5q10 62 10 119q0 79 -29 118t-78 39q-31 0 -59 -13.5t-56 -43t-51 -85 t-36 -132.5q-11 -72 -11 -119z" />
<glyph unicode="&#xbb;" horiz-adv-x="1107" d="M16 147q-53 103 90 211l205 154l-200 240q-24 27 -47.5 43t-35.5 18l-12 2q0 20 27 49q51 54 115 54q62 0 112 -58l299 -348l-422 -338q-26 -21 -46 -41t-27 -29l-6 -10q-34 18 -52 53zM330 924q-1 20 26 49q48 51 115 51q66 0 113 -55l401 -457l-514 -440 q-21 -17 -38.5 -37.5t-24.5 -32.5l-7 -12q-41 16 -61 55q-24 53 -2 102t92 109l299 254l-305 350q-24 27 -47.5 43t-34.5 19z" />
<glyph unicode="&#xbc;" horiz-adv-x="1742" d="M125 1323q65 45 113 93t63 70.5t21 35.5q24 14 92 14q87 0 113 -40t8 -136l-78 -440q-9 -51 -9.5 -89.5t3.5 -51.5l4 -13q-24 -16 -90 -16q-89 0 -115 40t-8 136l73 407l-20 -16q-64 -53 -107 -53q-31 0 -48 17t-15 42zM158 59q2 18 5.5 30.5t20 37t29 40.5t39.5 50 l973 1202q40 50 69.5 90.5t39.5 56.5l9 15q29 3 66 -20q25 -14 40.5 -28t24 -26t6.5 -30t-5.5 -30.5t-20 -37t-29 -40.5t-39.5 -50l-972 -1202q-40 -50 -70 -90.5t-40 -56.5l-9 -15q-27 -3 -66 20q-25 14 -40.5 28t-24 26t-6.5 30zM932 346v23q91 45 140.5 118.5t49.5 155.5 q0 20 -4.5 37t-11 27.5t-12.5 18t-10 11.5l-5 4q0 2 13 12.5t43.5 21.5t66.5 11q62 0 96.5 -34t34.5 -99q0 -79 -51 -140.5t-160 -139.5h205l45 248q9 51 9 89t-5 50l-4 12q24 14 92 14q87 0 113 -40t8 -136l-43 -237h53q30 0 53.5 3.5t31.5 7.5l8 3q14 -12 14 -43 q0 -50 -30.5 -70t-108.5 -20h-41l-15 -84q-9 -51 -9.5 -89.5t3.5 -51.5l4 -13q-24 -16 -90 -16q-88 0 -113.5 39.5t-9.5 136.5l15 78h-205q-92 0 -131 20.5t-39 71.5z" />
<glyph unicode="&#xbd;" horiz-adv-x="1705" d="M125 1323q65 45 113 93t63 70.5t21 35.5q24 14 92 14q87 0 113 -40t8 -136l-78 -440q-9 -51 -9.5 -89.5t3.5 -51.5l4 -13q-24 -16 -90 -16q-89 0 -115 40t-8 136l73 407l-20 -16q-64 -53 -107 -53q-31 0 -48 17t-15 42zM158 59q2 18 5.5 30.5t20 37t29 40.5t39.5 50 l973 1202q40 50 69.5 90.5t39.5 56.5l9 15q29 3 66 -20q25 -14 40.5 -28t24 -26t6.5 -30t-5.5 -30.5t-20 -37t-29 -40.5t-39.5 -50l-972 -1202q-40 -50 -70 -90.5t-40 -56.5l-9 -15q-27 -3 -66 20q-25 14 -40.5 28t-24 26t-6.5 30zM987 84q0 32 41 84t113 108 q131 101 181 171.5t50 127.5q0 107 -80 107q-44 0 -69 -35.5t-25 -93.5q0 -20 5 -38.5t9 -26.5l5 -9q-1 -3 -4.5 -7.5t-19 -12.5t-36.5 -8q-110 0 -110 114q0 95 83.5 157t204.5 62q115 0 181.5 -58t66.5 -142q0 -94 -65 -174t-236 -170q-36 -19 -70.5 -43t-50.5 -38 l-16 -14q37 11 86 13q206 9 274 30q13 -16 13 -51q0 -62 -36.5 -99.5t-105.5 -37.5q-61 0 -139 7t-107 7q-19 0 -40 -3.5t-32 -6.5l-11 -4q-24 0 -42 24t-18 60z" />
<glyph unicode="&#xbe;" horiz-adv-x="1820" d="M123 909q0 31 16.5 51.5t48.5 20.5l25 -6q0 -56 30 -89.5t85 -33.5q70 0 108.5 43t38.5 111q0 25 -6.5 46t-12.5 30l-7 8h-29q-34 0 -53 15.5t-19 43.5q0 12 2 18q70 0 116 49t46 117q0 101 -88 101q-42 0 -71 -35t-29 -82q0 -20 5 -36.5t10 -22.5l5 -7q-12 -26 -61 -26 q-60 0 -85.5 32.5t-25.5 81.5q0 84 84 140.5t211 56.5q121 0 188.5 -59t67.5 -148q0 -63 -40 -119t-105 -84q48 -15 79 -55.5t31 -93.5q0 -96 -85 -161.5t-247 -65.5q-111 0 -172 46.5t-61 112.5zM236 59q2 18 5.5 30.5t20 37t29 40.5t39.5 50l973 1202q40 50 69.5 90.5 t39.5 56.5l9 15q29 3 66 -20q25 -14 40.5 -28t24 -26t6.5 -30t-5.5 -30.5t-20 -37t-29 -40.5t-39.5 -50l-972 -1202q-40 -50 -69.5 -90.5t-39.5 -56.5l-10 -15q-27 -3 -66 20q-25 14 -40.5 28t-24 26t-6.5 30zM1010 346v23q91 45 140.5 118.5t49.5 155.5q0 20 -4.5 37 t-11 27.5t-12.5 18t-10 11.5l-5 4q0 2 13 12.5t43.5 21.5t66.5 11q62 0 96.5 -34t34.5 -99q0 -79 -51 -140.5t-160 -139.5h205l45 248q9 51 9 89t-5 50l-4 12q24 14 92 14q87 0 113 -40t8 -136l-43 -237h53q30 0 53 3.5t31 7.5l8 3q15 -12 15 -43q0 -50 -31 -70t-109 -20 h-41l-14 -84q-9 -51 -9.5 -89.5t3.5 -51.5l4 -13q-24 -16 -90 -16q-88 0 -113.5 39.5t-9.5 136.5l14 78h-204q-92 0 -131 20.5t-39 71.5z" />
<glyph unicode="&#xbf;" horiz-adv-x="929" d="M-82 -182q0 94 31.5 166.5t89 132.5t172.5 153q162 131 205 297q9 35 11.5 62.5t0.5 38.5l-2 10q18 14 51 14q39 0 55.5 -24.5t16.5 -71.5q0 -218 -170 -412q-176 -201 -176 -385q0 -93 49 -144.5t139 -51.5q97 0 162 76.5t65 185.5q0 37 -9 68.5t-18 44.5l-9 12 q1 2 3.5 5.5t12 11.5t22 14.5t34 12t46.5 5.5q68 0 108 -43.5t40 -124.5q0 -73 -37 -141.5t-101 -120.5t-158 -84t-202 -33q-106 0 -190 26.5t-136 72t-79 103.5t-27 124zM379 907q0 57 41 99.5t106 42.5q55 0 89 -34.5t34 -88.5q0 -62 -42 -105t-101 -43q-58 0 -92.5 36.5 t-34.5 92.5z" />
<glyph unicode="&#xc0;" horiz-adv-x="1359" d="M-82 158q0 32 7 57.5t15 34.5l7 10q22 -16 71 -16q74 0 145.5 71t141.5 242q-41 -4 -76.5 -16t-50.5 -21l-16 -10q-33 27 -33 82q0 62 44 98.5t120 36.5q37 0 74 -6l155 432q73 204 187 293.5t327 89.5q120 0 152.5 -51t11.5 -172l-168 -965q-14 -86 11.5 -128t80.5 -42 q46 0 93.5 34.5t75.5 71.5t46 72q45 0 39 -53q-7 -47 -39.5 -100t-81 -98.5t-115.5 -75t-134 -29.5q-110 0 -178 69t-68 185q0 109 29 285l4 22h-357l-61 -170q-35 -97 -67.5 -166.5t-61.5 -113t-60.5 -68.5t-60.5 -34t-66 -9q-64 0 -103.5 43.5t-39.5 114.5zM489 702 q169 -26 324 -28l115 649q4 27 6.5 52t3.5 37v11q-96 0 -170.5 -76t-114.5 -190zM647 2044q51 20 127 20q71 0 105.5 -22t54.5 -72l98 -256q-27 -14 -78 -14q-65 0 -100 51z" />
<glyph unicode="&#xc1;" horiz-adv-x="1359" d="M-82 158q0 32 7 57.5t15 34.5l7 10q22 -16 71 -16q74 0 145.5 71t141.5 242q-41 -4 -76.5 -16t-50.5 -21l-16 -10q-33 27 -33 82q0 62 44 98.5t120 36.5q37 0 74 -6l155 432q73 204 187 293.5t327 89.5q120 0 152.5 -51t11.5 -172l-168 -965q-14 -86 11.5 -128t80.5 -42 q46 0 93.5 34.5t75.5 71.5t46 72q45 0 39 -53q-7 -47 -39.5 -100t-81 -98.5t-115.5 -75t-134 -29.5q-110 0 -178 69t-68 185q0 109 29 285l4 22h-357l-61 -170q-35 -97 -67.5 -166.5t-61.5 -113t-60.5 -68.5t-60.5 -34t-66 -9q-64 0 -103.5 43.5t-39.5 114.5zM489 702 q169 -26 324 -28l115 649q4 27 6.5 52t3.5 37v11q-96 0 -170.5 -76t-114.5 -190zM932 1714l164 256q31 49 71.5 71.5t110.5 22.5q34 0 64.5 -5t44.5 -10l14 -5l-281 -293q-48 -51 -112 -51q-23 0 -42 3.5t-26 6.5z" />
<glyph unicode="&#xc2;" horiz-adv-x="1359" d="M-82 158q0 32 7 57.5t15 34.5l7 10q22 -16 71 -16q74 0 145.5 71t141.5 242q-41 -4 -76.5 -16t-50.5 -21l-16 -10q-33 27 -33 82q0 62 44 98.5t120 36.5q37 0 74 -6l155 432q73 204 187 293.5t327 89.5q120 0 152.5 -51t11.5 -172l-168 -965q-14 -86 11.5 -128t80.5 -42 q46 0 93.5 34.5t75.5 71.5t46 72q45 0 39 -53q-7 -47 -39.5 -100t-81 -98.5t-115.5 -75t-134 -29.5q-110 0 -178 69t-68 185q0 109 29 285l4 22h-357l-61 -170q-35 -97 -67.5 -166.5t-61.5 -113t-60.5 -68.5t-60.5 -34t-66 -9q-64 0 -103.5 43.5t-39.5 114.5zM489 702 q169 -26 324 -28l115 649q4 27 6.5 52t3.5 37v11q-96 0 -170.5 -76t-114.5 -190zM653 1714l262 334q33 16 86 16q61 0 95.5 -19t60.5 -63l152 -268q-43 -14 -76 -14q-67 0 -102 18t-62 64l-76 129l-151 -160q-28 -28 -52.5 -39.5t-60.5 -11.5q-24 0 -43 3.5t-26 6.5z" />
<glyph unicode="&#xc3;" horiz-adv-x="1359" d="M-82 158q0 32 7 57.5t15 34.5l7 10q22 -16 71 -16q74 0 145.5 71t141.5 242q-41 -4 -76.5 -16t-50.5 -21l-16 -10q-33 27 -33 82q0 62 44 98.5t120 36.5q37 0 74 -6l155 432q73 204 187 293.5t327 89.5q120 0 152.5 -51t11.5 -172l-168 -965q-14 -86 11.5 -128t80.5 -42 q46 0 93.5 34.5t75.5 71.5t46 72q45 0 39 -53q-7 -47 -39.5 -100t-81 -98.5t-115.5 -75t-134 -29.5q-110 0 -178 69t-68 185q0 109 29 285l4 22h-357l-61 -170q-35 -97 -67.5 -166.5t-61.5 -113t-60.5 -68.5t-60.5 -34t-66 -9q-64 0 -103.5 43.5t-39.5 114.5zM489 702 q169 -26 324 -28l115 649q4 27 6.5 52t3.5 37v11q-96 0 -170.5 -76t-114.5 -190zM647 1784q5 88 72 153.5t164 65.5q47 0 88 -17.5t65 -38t57.5 -38t67.5 -17.5q35 0 64 11.5t45 28t27.5 32.5t15.5 28l4 11q50 0 47 -64q-5 -88 -72 -153.5t-164 -65.5q-48 0 -88.5 17.5 t-63.5 38t-56.5 38t-69.5 17.5q-35 0 -64 -11.5t-45 -27.5t-27.5 -32.5t-15.5 -27.5l-4 -12q-50 0 -47 64z" />
<glyph unicode="&#xc4;" horiz-adv-x="1359" d="M-82 158q0 32 7 57.5t15 34.5l7 10q22 -16 71 -16q74 0 145.5 71t141.5 242q-41 -4 -76.5 -16t-50.5 -21l-16 -10q-33 27 -33 82q0 62 44 98.5t120 36.5q37 0 74 -6l155 432q73 204 187 293.5t327 89.5q120 0 152.5 -51t11.5 -172l-168 -965q-14 -86 11.5 -128t80.5 -42 q46 0 93.5 34.5t75.5 71.5t46 72q45 0 39 -53q-7 -47 -39.5 -100t-81 -98.5t-115.5 -75t-134 -29.5q-110 0 -178 69t-68 185q0 109 29 285l4 22h-357l-61 -170q-35 -97 -67.5 -166.5t-61.5 -113t-60.5 -68.5t-60.5 -34t-66 -9q-64 0 -103.5 43.5t-39.5 114.5zM489 702 q169 -26 324 -28l115 649q4 27 6.5 52t3.5 37v11q-96 0 -170.5 -76t-114.5 -190zM707 1843q0 56 38 93.5t91 37.5q49 0 79.5 -31.5t30.5 -78.5q0 -53 -36.5 -91t-94.5 -38q-47 0 -77.5 31t-30.5 77zM1065 1843q0 57 37.5 94t91.5 37q49 0 80 -31.5t31 -78.5q0 -53 -37 -91 t-94 -38q-47 0 -78 31t-31 77z" />
<glyph unicode="&#xc5;" horiz-adv-x="1359" d="M-82 158q0 32 7 57.5t15 34.5l7 10q22 -16 71 -16q74 0 145.5 71t141.5 242q-41 -4 -76.5 -16t-50.5 -21l-16 -10q-33 27 -33 82q0 62 44 98.5t120 36.5q37 0 74 -6l155 432q73 204 187 293.5t327 89.5q120 0 152.5 -51t11.5 -172l-168 -965q-14 -86 11.5 -128t80.5 -42 q46 0 93.5 34.5t75.5 71.5t46 72q45 0 39 -53q-7 -47 -39.5 -100t-81 -98.5t-115.5 -75t-134 -29.5q-110 0 -178 69t-68 185q0 109 29 285l4 22h-357l-61 -170q-35 -97 -67.5 -166.5t-61.5 -113t-60.5 -68.5t-60.5 -34t-66 -9q-64 0 -103.5 43.5t-39.5 114.5zM489 702 q169 -26 324 -28l115 649q4 27 6.5 52t3.5 37v11q-96 0 -170.5 -76t-114.5 -190zM813 1843q0 95 64.5 159t152.5 64q85 0 138 -54.5t53 -135.5q0 -88 -63 -152.5t-161 -64.5q-81 0 -132.5 52.5t-51.5 131.5zM930 1853q0 -35 22 -58t56 -23q43 0 68.5 29t25.5 69 q0 34 -20.5 58t-57.5 24q-40 0 -67 -29t-27 -70z" />
<glyph unicode="&#xc6;" horiz-adv-x="1812" d="M-82 158q0 32 7 57.5t15 34.5l7 10q16 -16 65 -16q89 0 175 110t190 365q-41 -4 -77 -16t-52 -21l-15 -10q-32 27 -32 82q0 62 44 98.5t120 36.5q35 0 73 -6l78 250q61 195 178 299t314 104h397q192 0 299.5 -92.5t107.5 -226.5q0 -102 -51.5 -165t-146.5 -63 q-39 0 -70.5 12.5t-43.5 24.5l-11 12q4 3 10 10t22 29t28 46.5t22 63t10 77.5q0 159 -158 159q-117 0 -198.5 -99t-81.5 -237q0 -49 11 -89.5t35 -76t69 -55.5t108 -20h16q2 -9 2 -23q0 -78 -108 -78h-47q-120 -29 -189 -111.5t-69 -189.5q0 -126 95 -200t286 -74 q181 0 312.5 57.5t193.5 128.5q36 0 36 -28q0 -45 -54 -101.5t-142.5 -107t-217 -85t-261.5 -34.5q-242 0 -386.5 103.5t-144.5 285.5q0 102 52.5 189t150.5 145h-381q-112 -303 -188.5 -459.5t-133 -210t-127.5 -53.5q-64 0 -103.5 43.5t-39.5 114.5zM561 864 q238 -20 420 -26q-121 98 -121 254q0 107 51.5 197t143.5 151q-159 -2 -259.5 -71t-146.5 -220z" />
<glyph unicode="&#xc7;" horiz-adv-x="1320" d="M102 637q0 211 63 384t170 284t244 171t289 60q93 0 168.5 -29t122 -78t71.5 -111t23 -130q-4 -139 -76 -218t-173 -79q-44 0 -77.5 17.5t-44.5 35.5l-12 17q6 2 16 7.5t35.5 28.5t45.5 52.5t37.5 83.5t19.5 118q1 79 -43 125.5t-119 46.5q-66 0 -133.5 -34.5 t-128.5 -102t-109 -158t-76 -213t-28 -256.5q0 -233 117 -361t325 -128q156 0 288.5 51t207.5 135q42 0 35 -45q-11 -44 -61.5 -95t-125.5 -97t-179 -78.5t-210 -36.5l-14 -55q73 -4 115.5 -48.5t42.5 -115.5q0 -91 -67 -154t-167 -63q-69 0 -117.5 37t-56.5 92q-3 22 6 33 t19 12h10q3 -5 10 -13t31.5 -21t52.5 -13q42 0 67 27t25 67q0 38 -24 60t-70 22q-30 0 -51 -8q23 92 35 141q-237 35 -383 200.5t-146 432.5z" />
<glyph unicode="&#xc8;" horiz-adv-x="1187" d="M61 389q0 140 99 249t270 153q-93 44 -145 124t-52 177q0 192 153 318t388 126q195 0 303.5 -92t108.5 -227q0 -102 -52 -165t-147 -63q-39 0 -70.5 12.5t-42.5 24.5l-12 12q4 3 10 10t22 29t28 46.5t22 63t10 77.5q0 159 -157 159q-118 0 -199.5 -99t-81.5 -237 q0 -50 12 -92t38 -78t74.5 -55t115.5 -16q2 -9 2 -23q0 -78 -109 -78h-47q-120 -29 -189 -111.5t-69 -189.5q0 -123 92.5 -198.5t288.5 -75.5q181 0 312.5 57.5t193.5 128.5q45 0 35 -45q-10 -46 -67 -99.5t-144.5 -101t-211.5 -79t-251 -31.5q-242 0 -386.5 103.5 t-144.5 285.5zM502 2044q51 20 127 20q70 0 104.5 -22t54.5 -72l99 -256q-27 -14 -78 -14q-65 0 -100 51z" />
<glyph unicode="&#xc9;" horiz-adv-x="1187" d="M61 389q0 140 99 249t270 153q-93 44 -145 124t-52 177q0 192 153 318t388 126q195 0 303.5 -92t108.5 -227q0 -102 -52 -165t-147 -63q-39 0 -70.5 12.5t-42.5 24.5l-12 12q4 3 10 10t22 29t28 46.5t22 63t10 77.5q0 159 -157 159q-118 0 -199.5 -99t-81.5 -237 q0 -50 12 -92t38 -78t74.5 -55t115.5 -16q2 -9 2 -23q0 -78 -109 -78h-47q-120 -29 -189 -111.5t-69 -189.5q0 -123 92.5 -198.5t288.5 -75.5q181 0 312.5 57.5t193.5 128.5q45 0 35 -45q-10 -46 -67 -99.5t-144.5 -101t-211.5 -79t-251 -31.5q-242 0 -386.5 103.5 t-144.5 285.5zM745 1714l164 256q31 49 72 71.5t111 22.5q34 0 64.5 -5t43.5 -10l14 -5l-280 -293q-48 -51 -113 -51q-23 0 -42 3.5t-27 6.5z" />
<glyph unicode="&#xca;" horiz-adv-x="1187" d="M61 389q0 140 99 249t270 153q-93 44 -145 124t-52 177q0 192 153 318t388 126q195 0 303.5 -92t108.5 -227q0 -102 -52 -165t-147 -63q-39 0 -70.5 12.5t-42.5 24.5l-12 12q4 3 10 10t22 29t28 46.5t22 63t10 77.5q0 159 -157 159q-118 0 -199.5 -99t-81.5 -237 q0 -50 12 -92t38 -78t74.5 -55t115.5 -16q2 -9 2 -23q0 -78 -109 -78h-47q-120 -29 -189 -111.5t-69 -189.5q0 -123 92.5 -198.5t288.5 -75.5q181 0 312.5 57.5t193.5 128.5q45 0 35 -45q-10 -46 -67 -99.5t-144.5 -101t-211.5 -79t-251 -31.5q-242 0 -386.5 103.5 t-144.5 285.5zM506 1714l262 334q33 16 86 16q61 0 95.5 -19t60.5 -63l151 -268q-43 -14 -76 -14q-67 0 -101.5 18t-61.5 64l-76 129l-152 -160q-29 -29 -52.5 -40t-59.5 -11q-24 0 -43 3.5t-26 6.5z" />
<glyph unicode="&#xcb;" horiz-adv-x="1187" d="M61 389q0 140 99 249t270 153q-93 44 -145 124t-52 177q0 192 153 318t388 126q195 0 303.5 -92t108.5 -227q0 -102 -52 -165t-147 -63q-39 0 -70.5 12.5t-42.5 24.5l-12 12q4 3 10 10t22 29t28 46.5t22 63t10 77.5q0 159 -157 159q-118 0 -199.5 -99t-81.5 -237 q0 -50 12 -92t38 -78t74.5 -55t115.5 -16q2 -9 2 -23q0 -78 -109 -78h-47q-120 -29 -189 -111.5t-69 -189.5q0 -123 92.5 -198.5t288.5 -75.5q181 0 312.5 57.5t193.5 128.5q45 0 35 -45q-10 -46 -67 -99.5t-144.5 -101t-211.5 -79t-251 -31.5q-242 0 -386.5 103.5 t-144.5 285.5zM530 1843q0 56 38 93.5t91 37.5q49 0 80 -31.5t31 -78.5q0 -53 -36.5 -91t-94.5 -38q-47 0 -78 31t-31 77zM889 1843q0 57 37.5 94t91.5 37q49 0 79.5 -31.5t30.5 -78.5q0 -53 -37 -91t-94 -38q-47 0 -77.5 31t-30.5 77z" />
<glyph unicode="&#xcc;" horiz-adv-x="905" d="M-41 1186q0 156 137 253t379 97h143q111 0 143 -50.5t11 -172.5l-192 -1098q-11 -64 -11.5 -112.5t4.5 -65.5l5 -17q-33 -20 -117 -20q-111 0 -143 50.5t-11 172.5l193 1100q10 68 10 100h-21q-133 0 -205.5 -63.5t-72.5 -157.5q0 -43 22 -68.5t60 -25.5q10 0 19 1.5 t12 2.5l4 2q2 -6 2 -18q0 -42 -42 -78.5t-114 -36.5q-99 0 -157 56t-58 149zM379 2044q51 20 127 20q71 0 105.5 -22t54.5 -72l98 -256q-27 -14 -78 -14q-65 0 -100 51z" />
<glyph unicode="&#xcd;" horiz-adv-x="905" d="M-41 1186q0 156 137 253t379 97h143q111 0 143 -50.5t11 -172.5l-192 -1098q-11 -64 -11.5 -112.5t4.5 -65.5l5 -17q-33 -20 -117 -20q-111 0 -143 50.5t-11 172.5l193 1100q10 68 10 100h-21q-133 0 -205.5 -63.5t-72.5 -157.5q0 -43 22 -68.5t60 -25.5q10 0 19 1.5 t12 2.5l4 2q2 -6 2 -18q0 -42 -42 -78.5t-114 -36.5q-99 0 -157 56t-58 149zM621 1714l163 256q31 49 72 71.5t111 22.5q34 0 64.5 -5t44.5 -10l14 -5l-281 -293q-48 -51 -113 -51q-23 0 -41.5 3.5t-26.5 6.5z" />
<glyph unicode="&#xce;" horiz-adv-x="905" d="M-41 1186q0 156 137 253t379 97h143q111 0 143 -50.5t11 -172.5l-192 -1098q-11 -64 -11.5 -112.5t4.5 -65.5l5 -17q-33 -20 -117 -20q-111 0 -143 50.5t-11 172.5l193 1100q10 68 10 100h-21q-133 0 -205.5 -63.5t-72.5 -157.5q0 -43 22 -68.5t60 -25.5q10 0 19 1.5 t12 2.5l4 2q2 -6 2 -18q0 -42 -42 -78.5t-114 -36.5q-99 0 -157 56t-58 149zM373 1714l262 334q33 16 86 16q61 0 95.5 -19t60.5 -63l151 -268q-43 -14 -76 -14q-67 0 -102 18t-62 64l-75 129l-152 -160q-29 -29 -52.5 -40t-59.5 -11q-24 0 -43 3.5t-26 6.5z" />
<glyph unicode="&#xcf;" horiz-adv-x="905" d="M-41 1186q0 156 137 253t379 97h143q111 0 143 -50.5t11 -172.5l-192 -1098q-11 -64 -11.5 -112.5t4.5 -65.5l5 -17q-33 -20 -117 -20q-111 0 -143 50.5t-11 172.5l193 1100q10 68 10 100h-21q-133 0 -205.5 -63.5t-72.5 -157.5q0 -43 22 -68.5t60 -25.5q10 0 19 1.5 t12 2.5l4 2q2 -6 2 -18q0 -42 -42 -78.5t-114 -36.5q-99 0 -157 56t-58 149zM389 1843q0 56 38 93.5t91 37.5q49 0 80 -31.5t31 -78.5q0 -53 -36.5 -91t-94.5 -38q-47 0 -78 31t-31 77zM748 1843q0 57 37 94t92 37q49 0 79.5 -31.5t30.5 -78.5q0 -53 -37 -91t-94 -38 q-47 0 -77.5 31t-30.5 77z" />
<glyph unicode="&#xd0;" horiz-adv-x="1613" d="M-41 1145q0 62 26 119t79.5 106.5t130.5 86.5t185 58t236 21q208 0 380 -55.5t289.5 -155t182 -239t64.5 -304.5q0 -180 -56 -328t-155.5 -247t-237.5 -153t-301 -54q-146 0 -280 55q-82 -55 -211 -55q-84 0 -125 35.5t-41 85.5q0 53 39.5 88t116.5 35q29 0 79 -11 l66 379h-254q-14 27 -14 54t18 43t51 16h219l62 352q11 63 11.5 111t-4.5 65l-5 17q33 20 117 20q111 0 142.5 -50t10.5 -173l-61 -342h260q14 -26 14 -53t-18 -43.5t-51 -16.5h-224l-57 -327q-16 -89 -53 -144q59 -18 125 -18q246 0 389 189t143 501q0 285 -164.5 447.5 t-455.5 162.5q-108 0 -192 -24t-130.5 -63.5t-70 -84t-23.5 -90.5q0 -43 22 -68.5t60 -25.5q10 0 19 1.5t12 3.5l4 1q2 -6 2 -18q0 -42 -42 -78.5t-114 -36.5q-99 0 -157 56t-58 149z" />
<glyph unicode="&#xd1;" horiz-adv-x="1597" d="M-41 1186q0 156 137 253t379 97h182q83 0 130 -37t71 -125l311 -1098l121 685q21 119 29 222t4.5 165t-10.5 107t-14 63l-7 18q21 18 72 18q59 0 85 -29.5t26 -99.5q0 -82 -41 -307l-158 -901q-27 -151 -12 -197q-40 -20 -146 -20q-82 0 -126 38.5t-68 123.5l-316 1112 l-123 -699q-21 -119 -28.5 -222t-4 -165t10 -107t13.5 -63l7 -18q-20 -18 -71 -18q-59 0 -85 29.5t-26 99.5q0 82 41 307l158 901q8 49 12 104h-23q-133 0 -205.5 -63.5t-72.5 -157.5q0 -43 22 -68.5t60 -25.5q10 0 19 1.5t12 2.5l4 2q2 -6 2 -18q0 -42 -42 -78.5 t-114 -36.5q-99 0 -157 56t-58 149zM707 1784q5 88 71.5 153.5t163.5 65.5q47 0 88 -17.5t65.5 -38t58 -38t67.5 -17.5q35 0 64 11.5t45 28t27 32.5t15 28l4 11q50 0 47 -64q-5 -88 -71.5 -153.5t-163.5 -65.5q-48 0 -88.5 17.5t-64 38t-57 38t-69.5 17.5q-35 0 -64 -11.5 t-45 -27.5t-27 -32.5t-15 -27.5l-4 -12q-50 0 -47 64z" />
<glyph unicode="&#xd2;" d="M102 569q0 277 90.5 496t260 345t389.5 126q230 0 358.5 -151.5t128.5 -417.5q0 -162 -32.5 -308.5t-96.5 -266t-152.5 -207.5t-205.5 -136.5t-252 -48.5q-221 0 -354.5 145.5t-133.5 423.5zM383 487q0 -199 63 -286.5t168 -87.5q139 0 249 167t161 488q23 141 23 281 q0 198 -63 286t-169 88q-132 0 -245 -162.5t-164 -492.5q-23 -161 -23 -281zM532 2044q51 20 127 20q71 0 105.5 -22t54.5 -72l99 -256q-27 -14 -78 -14q-66 0 -101 51z" />
<glyph unicode="&#xd3;" d="M102 569q0 277 90.5 496t260 345t389.5 126q230 0 358.5 -151.5t128.5 -417.5q0 -162 -32.5 -308.5t-96.5 -266t-152.5 -207.5t-205.5 -136.5t-252 -48.5q-221 0 -354.5 145.5t-133.5 423.5zM383 487q0 -199 63 -286.5t168 -87.5q139 0 249 167t161 488q23 141 23 281 q0 198 -63 286t-169 88q-132 0 -245 -162.5t-164 -492.5q-23 -161 -23 -281zM780 1714l164 256q31 49 71.5 71.5t110.5 22.5q34 0 64.5 -5t44.5 -10l14 -5l-280 -293q-48 -51 -113 -51q-23 0 -42 3.5t-26 6.5z" />
<glyph unicode="&#xd4;" d="M102 569q0 277 90.5 496t260 345t389.5 126q230 0 358.5 -151.5t128.5 -417.5q0 -162 -32.5 -308.5t-96.5 -266t-152.5 -207.5t-205.5 -136.5t-252 -48.5q-221 0 -354.5 145.5t-133.5 423.5zM383 487q0 -199 63 -286.5t168 -87.5q139 0 249 167t161 488q23 141 23 281 q0 198 -63 286t-169 88q-132 0 -245 -162.5t-164 -492.5q-23 -161 -23 -281zM532 1714l263 334q33 16 86 16q61 0 95 -19t60 -63l152 -268q-43 -14 -76 -14q-67 0 -102 18t-62 64l-76 129l-151 -160q-28 -28 -52.5 -39.5t-60.5 -11.5q-24 0 -43 3.5t-26 6.5z" />
<glyph unicode="&#xd5;" d="M102 569q0 277 90.5 496t260 345t389.5 126q230 0 358.5 -151.5t128.5 -417.5q0 -162 -32.5 -308.5t-96.5 -266t-152.5 -207.5t-205.5 -136.5t-252 -48.5q-221 0 -354.5 145.5t-133.5 423.5zM383 487q0 -199 63 -286.5t168 -87.5q139 0 249 167t161 488q23 141 23 281 q0 198 -63 286t-169 88q-132 0 -245 -162.5t-164 -492.5q-23 -161 -23 -281zM506 1784q5 88 71.5 153.5t163.5 65.5q47 0 88 -17.5t65.5 -38t58 -38t67.5 -17.5q35 0 64 11.5t45.5 28t27.5 32.5t15 28l4 11q50 0 47 -64q-5 -88 -72 -153.5t-164 -65.5q-48 0 -88.5 17.5 t-63.5 38t-56.5 38t-69.5 17.5q-35 0 -64 -11.5t-45 -27.5t-27.5 -32.5t-15.5 -27.5l-4 -12q-50 0 -47 64z" />
<glyph unicode="&#xd6;" d="M102 569q0 277 90.5 496t260 345t389.5 126q230 0 358.5 -151.5t128.5 -417.5q0 -162 -32.5 -308.5t-96.5 -266t-152.5 -207.5t-205.5 -136.5t-252 -48.5q-221 0 -354.5 145.5t-133.5 423.5zM383 487q0 -199 63 -286.5t168 -87.5q139 0 249 167t161 488q23 141 23 281 q0 198 -63 286t-169 88q-132 0 -245 -162.5t-164 -492.5q-23 -161 -23 -281zM573 1843q0 56 38 93.5t91 37.5q49 0 80 -31.5t31 -78.5q0 -53 -36.5 -91t-94.5 -38q-47 0 -78 31t-31 77zM932 1843q0 57 37 94t92 37q49 0 79.5 -31.5t30.5 -78.5q0 -53 -37 -91t-94 -38 q-47 0 -77.5 31t-30.5 77z" />
<glyph unicode="&#xd7;" horiz-adv-x="929" d="M96 236q-83 100 47 210l181 150l-125 201q-18 30 -38 50t-31 25l-11 5q6 24 37 47q25 19 50 27t52 4.5t54.5 -25t52.5 -60.5l98 -157l186 157q27 23 46 44t25 30l5 10q20 1 47 -28q83 -100 -49 -211l-172 -144l131 -206q19 -30 39 -50t31 -25l10 -5q-8 -25 -39 -45 q-124 -85 -209 51l-102 162l-195 -162q-27 -24 -45.5 -46t-23.5 -32l-5 -10q-22 4 -47 33z" />
<glyph unicode="&#xd8;" d="M102 569q0 277 90.5 496t260 345t389.5 126q151 0 260 -68q22 32 38 58.5t22 37.5l5 11q27 1 66 -19q34 -17 51.5 -34.5t23 -35t-3.5 -42.5t-24 -48.5t-43 -62.5q92 -147 92 -366q0 -162 -32.5 -308.5t-96.5 -266t-152.5 -207.5t-205.5 -136.5t-252 -48.5q-169 0 -285 82 q-21 -30 -36 -55t-20 -35l-5 -10q-25 -2 -66 18q-25 12 -40.5 24.5t-25 24.5t-9.5 27.5t2.5 29t15 35t24.5 39.5t33 47q-76 136 -76 342zM383 504l608 817q-59 102 -176 102q-132 0 -245 -162.5t-164 -492.5q-23 -151 -23 -264zM424 242q59 -129 190 -129q139 0 249 167 t161 488q23 141 23 281v28z" />
<glyph unicode="&#xd9;" horiz-adv-x="1624" d="M-41 1186q0 156 137 253t379 97h143q111 0 143.5 -50.5t10.5 -172.5l-166 -942q-18 -104 -3 -148.5t67 -44.5q68 0 149 123q253 380 373 1022q12 63 12.5 111t-4.5 65l-6 17q33 20 117 20q111 0 142.5 -50t10.5 -173l-168 -965q-14 -86 12 -128t81 -42q46 0 93.5 34.5 t75.5 71.5t46 72q44 0 38 -53q-7 -47 -39.5 -100t-81 -98.5t-115.5 -75t-134 -29.5q-110 0 -178 69t-68 185q0 104 18 227q-70 -150 -137 -262q-134 -219 -334 -219q-110 0 -176.5 70t-66.5 184q0 94 20 217l150 852q10 68 10 100h-21q-133 0 -205.5 -63.5t-72.5 -157.5 q0 -43 22 -68.5t60 -25.5q10 0 19 1.5t12 2.5l4 2q2 -6 2 -18q0 -42 -42 -78.5t-114 -36.5q-99 0 -157 56t-58 149zM684 2044q51 20 127 20q71 0 105.5 -22t54.5 -72l98 -256q-27 -14 -78 -14q-65 0 -100 51z" />
<glyph unicode="&#xda;" horiz-adv-x="1624" d="M-41 1186q0 156 137 253t379 97h143q111 0 143.5 -50.5t10.5 -172.5l-166 -942q-18 -104 -3 -148.5t67 -44.5q68 0 149 123q253 380 373 1022q12 63 12.5 111t-4.5 65l-6 17q33 20 117 20q111 0 142.5 -50t10.5 -173l-168 -965q-14 -86 12 -128t81 -42q46 0 93.5 34.5 t75.5 71.5t46 72q44 0 38 -53q-7 -47 -39.5 -100t-81 -98.5t-115.5 -75t-134 -29.5q-110 0 -178 69t-68 185q0 104 18 227q-70 -150 -137 -262q-134 -219 -334 -219q-110 0 -176.5 70t-66.5 184q0 94 20 217l150 852q10 68 10 100h-21q-133 0 -205.5 -63.5t-72.5 -157.5 q0 -43 22 -68.5t60 -25.5q10 0 19 1.5t12 2.5l4 2q2 -6 2 -18q0 -42 -42 -78.5t-114 -36.5q-99 0 -157 56t-58 149zM911 1714l164 256q31 49 71.5 71.5t110.5 22.5q34 0 64.5 -5t44.5 -10l14 -5l-280 -293q-48 -51 -113 -51q-23 0 -42 3.5t-27 6.5z" />
<glyph unicode="&#xdb;" horiz-adv-x="1624" d="M-41 1186q0 156 137 253t379 97h143q111 0 143.5 -50.5t10.5 -172.5l-166 -942q-18 -104 -3 -148.5t67 -44.5q68 0 149 123q253 380 373 1022q12 63 12.5 111t-4.5 65l-6 17q33 20 117 20q111 0 142.5 -50t10.5 -173l-168 -965q-14 -86 12 -128t81 -42q46 0 93.5 34.5 t75.5 71.5t46 72q44 0 38 -53q-7 -47 -39.5 -100t-81 -98.5t-115.5 -75t-134 -29.5q-110 0 -178 69t-68 185q0 104 18 227q-70 -150 -137 -262q-134 -219 -334 -219q-110 0 -176.5 70t-66.5 184q0 94 20 217l150 852q10 68 10 100h-21q-133 0 -205.5 -63.5t-72.5 -157.5 q0 -43 22 -68.5t60 -25.5q10 0 19 1.5t12 2.5l4 2q2 -6 2 -18q0 -42 -42 -78.5t-114 -36.5q-99 0 -157 56t-58 149zM684 1714l262 334q33 16 86 16q61 0 95.5 -19t60.5 -63l151 -268q-42 -14 -75 -14q-67 0 -102 18t-62 64l-76 129l-152 -160q-29 -29 -52.5 -40t-59.5 -11 q-24 0 -43 3.5t-26 6.5z" />
<glyph unicode="&#xdc;" horiz-adv-x="1624" d="M-41 1186q0 156 137 253t379 97h143q111 0 143.5 -50.5t10.5 -172.5l-166 -942q-18 -104 -3 -148.5t67 -44.5q68 0 149 123q253 380 373 1022q12 63 12.5 111t-4.5 65l-6 17q33 20 117 20q111 0 142.5 -50t10.5 -173l-168 -965q-14 -86 12 -128t81 -42q46 0 93.5 34.5 t75.5 71.5t46 72q44 0 38 -53q-7 -47 -39.5 -100t-81 -98.5t-115.5 -75t-134 -29.5q-110 0 -178 69t-68 185q0 104 18 227q-70 -150 -137 -262q-134 -219 -334 -219q-110 0 -176.5 70t-66.5 184q0 94 20 217l150 852q10 68 10 100h-21q-133 0 -205.5 -63.5t-72.5 -157.5 q0 -43 22 -68.5t60 -25.5q10 0 19 1.5t12 2.5l4 2q2 -6 2 -18q0 -42 -42 -78.5t-114 -36.5q-99 0 -157 56t-58 149zM741 1843q0 56 38 93.5t91 37.5q49 0 80 -31.5t31 -78.5q0 -53 -36.5 -91t-94.5 -38q-47 0 -78 31t-31 77zM1100 1843q0 57 37 94t92 37q49 0 79.5 -31.5 t30.5 -78.5q0 -53 -37 -91t-94 -38q-47 0 -77.5 31t-30.5 77z" />
<glyph unicode="&#xdd;" horiz-adv-x="1400" d="M-41 1186q0 156 137 253t379 97h66q63 0 109 -32t59 -89l180 -741l29 43q315 471 315 745q0 21 -3 39.5t-6 26.5l-3 8q28 18 77 18q164 0 164 -137q0 -38 -15.5 -85.5t-38 -92t-66.5 -112.5t-81 -120.5t-102.5 -146t-111.5 -160.5l-123 -180l-54 -305 q-11 -64 -11.5 -112.5t4.5 -65.5l5 -17q-32 -20 -116 -20q-111 0 -143 50.5t-11 172.5l51 297l-217 899q-108 -13 -164.5 -73t-56.5 -144q0 -43 22 -68.5t60 -25.5q10 0 19 1.5t12 2.5l4 2q2 -6 2 -18q0 -42 -42 -78.5t-114 -36.5q-99 0 -157 56t-58 149zM905 1714l164 256 q31 49 71.5 71.5t110.5 22.5q34 0 64.5 -5t44.5 -10l14 -5l-280 -293q-48 -51 -113 -51q-23 0 -42 3.5t-27 6.5z" />
<glyph unicode="&#xde;" horiz-adv-x="1402" d="M92 223l193 1100q11 63 11.5 111t-4.5 65l-5 17q32 20 116 20q108 0 140.5 -49t13.5 -166h121q316 0 479.5 -132t163.5 -358q0 -129 -46.5 -240.5t-132.5 -193.5t-216.5 -129t-288.5 -47h-272q-11 -67 -12 -117t4 -67l5 -17q-32 -20 -116 -20q-111 0 -143 50.5t-11 172.5 zM385 334h145q121 0 218.5 41t159.5 110t95 157t33 185q0 193 -101.5 287t-334.5 94h-61z" />
<glyph unicode="&#xdf;" horiz-adv-x="1212" d="M-51 223l129 729q26 149 80 253.5t131 162.5t165.5 83.5t198.5 25.5q202 0 309 -91.5t107 -232.5q0 -126 -80.5 -214.5t-218.5 -131.5q-25 -8 -34 -14.5t-9 -16.5q0 -14 18 -26q131 -83 197 -164t66 -195q0 -160 -125.5 -275.5t-327.5 -115.5q-87 0 -138.5 27t-62.5 71 q-6 24 6.5 42t32.5 18q5 -5 14 -11.5t38 -18t59 -11.5q101 0 162 69t61 187q0 83 -47 156t-129 153q-47 44 -47 98q0 63 69 109q119 80 167 156.5t48 175.5q0 73 -39.5 113t-105.5 40q-34 0 -65.5 -10t-65.5 -36t-62 -67.5t-52.5 -108t-39.5 -153.5l-137 -784 q-11 -64 -11.5 -112.5t4.5 -65.5l5 -17q-33 -20 -117 -20q-111 0 -143 50.5t-10 172.5z" />
<glyph unicode="&#xe0;" horiz-adv-x="1140" d="M-61 352q0 133 29.5 245t79 189.5t115 132t137 80t144.5 25.5q142 0 222 -100q25 55 66.5 77.5t117.5 22.5q31 0 56.5 -5t35.5 -10l10 -5q-27 -37 -47 -148l-88 -498q-17 -90 7 -135t81 -45q55 0 115.5 48.5t99.5 129.5q21 0 32 -13t7 -40q-6 -34 -26 -73.5t-54.5 -80 t-76.5 -74t-97 -54.5t-112 -21q-103 0 -168 61t-72 170q-62 -113 -143 -172t-170 -59q-133 0 -217 90t-84 262zM201 348q0 -85 31.5 -127.5t89.5 -42.5q52 0 101 50t85.5 130t63 164.5t42.5 167.5l19 96q-43 99 -135 99q-53 0 -105.5 -38.5t-95 -105.5t-69.5 -170.5 t-27 -222.5zM272 1532q51 20 127 20q71 0 105.5 -22t54.5 -72l98 -256q-26 -14 -77 -14q-66 0 -101 51z" />
<glyph unicode="&#xe1;" horiz-adv-x="1140" d="M-61 352q0 133 29.5 245t79 189.5t115 132t137 80t144.5 25.5q142 0 222 -100q25 55 66.5 77.5t117.5 22.5q31 0 56.5 -5t35.5 -10l10 -5q-27 -37 -47 -148l-88 -498q-17 -90 7 -135t81 -45q55 0 115.5 48.5t99.5 129.5q21 0 32 -13t7 -40q-6 -34 -26 -73.5t-54.5 -80 t-76.5 -74t-97 -54.5t-112 -21q-103 0 -168 61t-72 170q-62 -113 -143 -172t-170 -59q-133 0 -217 90t-84 262zM201 348q0 -85 31.5 -127.5t89.5 -42.5q52 0 101 50t85.5 130t63 164.5t42.5 167.5l19 96q-43 99 -135 99q-53 0 -105.5 -38.5t-95 -105.5t-69.5 -170.5 t-27 -222.5zM496 1202l163 256q31 49 72 71.5t111 22.5q34 0 64.5 -5t44.5 -10l14 -5l-281 -293q-48 -51 -113 -51q-23 0 -41.5 3.5t-25.5 6.5z" />
<glyph unicode="&#xe2;" horiz-adv-x="1140" d="M-61 352q0 133 29.5 245t79 189.5t115 132t137 80t144.5 25.5q142 0 222 -100q25 55 66.5 77.5t117.5 22.5q31 0 56.5 -5t35.5 -10l10 -5q-27 -37 -47 -148l-88 -498q-17 -90 7 -135t81 -45q55 0 115.5 48.5t99.5 129.5q21 0 32 -13t7 -40q-6 -34 -26 -73.5t-54.5 -80 t-76.5 -74t-97 -54.5t-112 -21q-103 0 -168 61t-72 170q-62 -113 -143 -172t-170 -59q-133 0 -217 90t-84 262zM201 348q0 -85 31.5 -127.5t89.5 -42.5q52 0 101 50t85.5 130t63 164.5t42.5 167.5l19 96q-43 99 -135 99q-53 0 -105.5 -38.5t-95 -105.5t-69.5 -170.5 t-27 -222.5zM225 1202l262 334q33 16 86 16q61 0 95.5 -19t60.5 -63l152 -268q-43 -14 -76 -14q-67 0 -102 18t-62 64l-76 129l-151 -160q-28 -28 -52.5 -39.5t-60.5 -11.5q-24 0 -43 3.5t-26 6.5z" />
<glyph unicode="&#xe3;" horiz-adv-x="1140" d="M-61 352q0 133 29.5 245t79 189.5t115 132t137 80t144.5 25.5q142 0 222 -100q25 55 66.5 77.5t117.5 22.5q31 0 56.5 -5t35.5 -10l10 -5q-27 -37 -47 -148l-88 -498q-17 -90 7 -135t81 -45q55 0 115.5 48.5t99.5 129.5q21 0 32 -13t7 -40q-6 -34 -26 -73.5t-54.5 -80 t-76.5 -74t-97 -54.5t-112 -21q-103 0 -168 61t-72 170q-62 -113 -143 -172t-170 -59q-133 0 -217 90t-84 262zM201 348q0 -85 31.5 -127.5t89.5 -42.5q52 0 101 50t85.5 130t63 164.5t42.5 167.5l19 96q-43 99 -135 99q-53 0 -105.5 -38.5t-95 -105.5t-69.5 -170.5 t-27 -222.5zM203 1272q5 88 71.5 153.5t163.5 65.5q47 0 88 -17.5t65.5 -38t58 -38t67.5 -17.5q35 0 64 11.5t45 28t27 32.5t15 28l4 11q51 0 48 -64q-5 -88 -72 -153.5t-164 -65.5q-48 0 -88.5 17.5t-63.5 38t-56.5 38t-69.5 17.5q-35 0 -64 -11.5t-45 -27.5t-27.5 -32.5 t-15.5 -27.5l-4 -12q-50 0 -47 64z" />
<glyph unicode="&#xe4;" horiz-adv-x="1140" d="M-61 352q0 133 29.5 245t79 189.5t115 132t137 80t144.5 25.5q142 0 222 -100q25 55 66.5 77.5t117.5 22.5q31 0 56.5 -5t35.5 -10l10 -5q-27 -37 -47 -148l-88 -498q-17 -90 7 -135t81 -45q55 0 115.5 48.5t99.5 129.5q21 0 32 -13t7 -40q-6 -34 -26 -73.5t-54.5 -80 t-76.5 -74t-97 -54.5t-112 -21q-103 0 -168 61t-72 170q-62 -113 -143 -172t-170 -59q-133 0 -217 90t-84 262zM201 348q0 -85 31.5 -127.5t89.5 -42.5q52 0 101 50t85.5 130t63 164.5t42.5 167.5l19 96q-43 99 -135 99q-53 0 -105.5 -38.5t-95 -105.5t-69.5 -170.5 t-27 -222.5zM281 1331q0 56 38 93.5t91 37.5q49 0 79.5 -31.5t30.5 -78.5q0 -53 -36.5 -91t-94.5 -38q-47 0 -77.5 31t-30.5 77zM639 1331q0 57 37.5 94t91.5 37q49 0 80 -31.5t31 -78.5q0 -53 -37 -91t-94 -38q-47 0 -78 31t-31 77z" />
<glyph unicode="&#xe5;" horiz-adv-x="1140" d="M-61 352q0 133 29.5 245t79 189.5t115 132t137 80t144.5 25.5q142 0 222 -100q25 55 66.5 77.5t117.5 22.5q31 0 56.5 -5t35.5 -10l10 -5q-27 -37 -47 -148l-88 -498q-17 -90 7 -135t81 -45q55 0 115.5 48.5t99.5 129.5q21 0 32 -13t7 -40q-6 -34 -26 -73.5t-54.5 -80 t-76.5 -74t-97 -54.5t-112 -21q-103 0 -168 61t-72 170q-62 -113 -143 -172t-170 -59q-133 0 -217 90t-84 262zM201 348q0 -85 31.5 -127.5t89.5 -42.5q52 0 101 50t85.5 130t63 164.5t42.5 167.5l19 96q-43 99 -135 99q-53 0 -105.5 -38.5t-95 -105.5t-69.5 -170.5 t-27 -222.5zM367 1331q0 95 64.5 159t152.5 64q85 0 137.5 -54.5t52.5 -135.5q0 -88 -62.5 -152.5t-160.5 -64.5q-81 0 -132.5 52.5t-51.5 131.5zM483 1341q0 -35 22 -58t56 -23q43 0 68.5 29t25.5 69q0 34 -20.5 58t-56.5 24q-41 0 -68 -29t-27 -70z" />
<glyph unicode="&#xe6;" horiz-adv-x="1542" d="M-61 352q0 133 29.5 245t79 189.5t115 132t137 80t144.5 25.5q60 0 110 -18.5t81.5 -49t49 -55t28.5 -49.5q77 82 181 127t212 45q146 0 219.5 -63t73.5 -150q0 -136 -149 -230.5t-427 -146.5q9 -119 88 -195.5t205 -76.5q78 0 146 17.5t116.5 47.5t81.5 62t56 67 q43 0 32 -53q-9 -40 -50.5 -90t-107 -98.5t-164.5 -81.5t-206 -33q-157 0 -272 72t-162 202q-35 -70 -82 -128.5t-118 -102t-146 -43.5q-133 0 -217 90t-84 262zM201 348q0 -85 32.5 -127.5t92.5 -42.5q54 0 122 71.5t109 180.5q0 194 86 332q-15 48 -49 85.5t-96 37.5 q-53 0 -105.5 -38.5t-95 -105.5t-69.5 -170.5t-27 -222.5zM825 530q179 42 267 127.5t88 192.5q0 32 -20 52t-52 20q-96 0 -181.5 -106t-101.5 -286z" />
<glyph unicode="&#xe7;" horiz-adv-x="923" d="M-61 434q0 130 45.5 242t121 187t174 118t203.5 43q127 0 208 -65.5t81 -165.5q0 -93 -48.5 -153t-127.5 -60q-21 0 -38.5 5t-28 12t-18 14.5t-10.5 12.5l-3 5l8 8t18 23t23 39t18 55.5t8 72.5q0 43 -26.5 69t-67.5 26q-102 0 -188 -127.5t-86 -319.5q0 -141 78 -227 t223 -86q142 0 241.5 58t149.5 136q44 0 33 -53q-9 -37 -46.5 -84t-96 -93.5t-146.5 -81.5t-184 -42l-15 -53q73 -4 115.5 -48.5t42.5 -115.5q0 -92 -66.5 -154.5t-166.5 -62.5q-69 0 -117.5 37t-56.5 92q-3 22 5.5 33t18.5 12h10q4 -5 11 -13t31.5 -21t52.5 -13q42 0 67 27 t25 67q0 38 -24.5 60t-70.5 22q-30 0 -51 -8q25 98 37 145q-167 27 -266.5 140.5t-99.5 285.5z" />
<glyph unicode="&#xe8;" horiz-adv-x="923" d="M-61 442q0 131 47.5 243t125 184.5t175 113.5t200.5 41q146 0 219.5 -63t73.5 -150q0 -268 -575 -377q9 -119 87.5 -195.5t205.5 -76.5q78 0 146 17.5t116 47.5t81 62t56 67q44 0 33 -53q-6 -28 -31.5 -66t-73 -79.5t-107.5 -76.5t-144 -58t-173 -23q-205 0 -333.5 119 t-128.5 323zM190 1532q51 20 127 20q71 0 105.5 -22t54.5 -72l98 -256q-26 -14 -77 -14q-66 0 -101 51zM207 530q179 42 266.5 127.5t87.5 192.5q0 32 -20 52t-52 20q-45 0 -90.5 -26t-85.5 -73.5t-69 -124t-37 -168.5z" />
<glyph unicode="&#xe9;" horiz-adv-x="923" d="M-61 442q0 131 47.5 243t125 184.5t175 113.5t200.5 41q146 0 219.5 -63t73.5 -150q0 -268 -575 -377q9 -119 87.5 -195.5t205.5 -76.5q78 0 146 17.5t116 47.5t81 62t56 67q44 0 33 -53q-6 -28 -31.5 -66t-73 -79.5t-107.5 -76.5t-144 -58t-173 -23q-205 0 -333.5 119 t-128.5 323zM207 530q179 42 266.5 127.5t87.5 192.5q0 32 -20 52t-52 20q-45 0 -90.5 -26t-85.5 -73.5t-69 -124t-37 -168.5zM408 1202l163 256q31 49 72 71.5t111 22.5q34 0 64.5 -5t44.5 -10l14 -5l-281 -293q-48 -51 -113 -51q-23 0 -41.5 3.5t-25.5 6.5z" />
<glyph unicode="&#xea;" horiz-adv-x="923" d="M-61 442q0 131 47.5 243t125 184.5t175 113.5t200.5 41q146 0 219.5 -63t73.5 -150q0 -268 -575 -377q9 -119 87.5 -195.5t205.5 -76.5q78 0 146 17.5t116 47.5t81 62t56 67q44 0 33 -53q-6 -28 -31.5 -66t-73 -79.5t-107.5 -76.5t-144 -58t-173 -23q-205 0 -333.5 119 t-128.5 323zM158 1202l262 334q33 16 86 16q61 0 95.5 -19t60.5 -63l151 -268q-43 -14 -76 -14q-67 0 -102 18t-62 64l-75 129l-152 -160q-28 -28 -52.5 -39.5t-60.5 -11.5q-24 0 -42.5 3.5t-25.5 6.5zM207 530q179 42 266.5 127.5t87.5 192.5q0 32 -20 52t-52 20 q-45 0 -90.5 -26t-85.5 -73.5t-69 -124t-37 -168.5z" />
<glyph unicode="&#xeb;" horiz-adv-x="923" d="M-61 442q0 131 47.5 243t125 184.5t175 113.5t200.5 41q146 0 219.5 -63t73.5 -150q0 -268 -575 -377q9 -119 87.5 -195.5t205.5 -76.5q78 0 146 17.5t116 47.5t81 62t56 67q44 0 33 -53q-6 -28 -31.5 -66t-73 -79.5t-107.5 -76.5t-144 -58t-173 -23q-205 0 -333.5 119 t-128.5 323zM207 530q179 42 266.5 127.5t87.5 192.5q0 32 -20 52t-52 20q-45 0 -90.5 -26t-85.5 -73.5t-69 -124t-37 -168.5zM229 1331q0 56 38 93.5t91 37.5q49 0 80 -31.5t31 -78.5q0 -53 -36.5 -91t-94.5 -38q-47 0 -78 31t-31 77zM588 1331q0 57 37 94t92 37 q49 0 79.5 -31.5t30.5 -78.5q0 -53 -37 -91t-94 -38q-47 0 -77.5 31t-30.5 77z" />
<glyph unicode="&#xec;" horiz-adv-x="546" d="M-72 1532q51 20 127 20q71 0 105.5 -22t54.5 -72l98 -256q-26 -14 -77 -14q-66 0 -101 51zM-41 256q0 90 18 195l66 378q10 57 10.5 101.5t-3.5 59.5l-5 16q31 18 107 18q113 0 142 -44.5t9 -158.5l-80 -463q-29 -180 88 -180q55 0 115.5 48.5t99.5 129.5q21 0 32 -13 t7 -40q-6 -34 -26 -73.5t-54.5 -80t-76.5 -74t-97 -54.5t-112 -21q-108 0 -174 67.5t-66 188.5z" />
<glyph unicode="&#xed;" horiz-adv-x="546" d="M-41 256q0 90 18 195l66 378q10 57 10.5 101.5t-3.5 59.5l-5 16q31 18 107 18q113 0 142 -44.5t9 -158.5l-80 -463q-29 -180 88 -180q55 0 115.5 48.5t99.5 129.5q21 0 32 -13t7 -40q-6 -34 -26 -73.5t-54.5 -80t-76.5 -74t-97 -54.5t-112 -21q-108 0 -174 67.5 t-66 188.5zM139 1202l164 256q31 49 71.5 71.5t110.5 22.5q34 0 64.5 -5t44.5 -10l14 -5l-280 -293q-48 -51 -113 -51q-23 0 -42 3.5t-27 6.5z" />
<glyph unicode="&#xee;" horiz-adv-x="546" d="M-102 1202l262 334q33 16 86 16q61 0 95 -19t60 -63l152 -268q-43 -14 -76 -14q-67 0 -102 18t-62 64l-75 129l-152 -160q-28 -28 -52.5 -39.5t-60.5 -11.5q-24 0 -42.5 3.5t-25.5 6.5zM-41 256q0 90 18 195l66 378q10 57 10.5 101.5t-3.5 59.5l-5 16q31 18 107 18 q113 0 142 -44.5t9 -158.5l-80 -463q-29 -180 88 -180q55 0 115.5 48.5t99.5 129.5q21 0 32 -13t7 -40q-6 -34 -26 -73.5t-54.5 -80t-76.5 -74t-97 -54.5t-112 -21q-108 0 -174 67.5t-66 188.5z" />
<glyph unicode="&#xef;" horiz-adv-x="546" d="M-72 1331q0 56 38 93.5t91 37.5q49 0 80 -31.5t31 -78.5q0 -53 -36.5 -91t-94.5 -38q-47 0 -78 31t-31 77zM-41 256q0 90 18 195l66 378q10 57 10.5 101.5t-3.5 59.5l-5 16q31 18 107 18q113 0 142 -44.5t9 -158.5l-80 -463q-29 -180 88 -180q55 0 115.5 48.5t99.5 129.5 q21 0 32 -13t7 -40q-6 -34 -26 -73.5t-54.5 -80t-76.5 -74t-97 -54.5t-112 -21q-108 0 -174 67.5t-66 188.5zM287 1331q0 57 37.5 94t91.5 37q49 0 79.5 -31.5t30.5 -78.5q0 -53 -37 -91t-94 -38q-47 0 -77.5 31t-30.5 77z" />
<glyph unicode="&#xf0;" horiz-adv-x="1091" d="M-41 383q0 278 151.5 443t403.5 165q32 0 60 -5.5t40 -11.5l13 -5q-22 180 -80 313l-199 -111q-21 8 -33 31q-26 51 33 86l154 86q-103 176 -297 258q-1 3 -2 7.5t-1.5 16t2.5 20.5t14.5 16.5t29.5 7.5q106 0 216 -62.5t202 -175.5l196 111q21 -6 35 -31q13 -21 4 -45 t-37 -39l-139 -78q88 -136 135 -308t47 -341q0 -340 -152 -535.5t-419 -195.5q-169 0 -273 99t-104 284zM221 295q0 -96 35 -144.5t100 -48.5q191 0 267 394q18 95 18 202q0 193 -135 193q-41 0 -77.5 -19t-72 -62t-65.5 -122.5t-51 -189.5q-19 -101 -19 -203z" />
<glyph unicode="&#xf1;" horiz-adv-x="1165" d="M-51 203l108 626q10 57 10.5 101.5t-3.5 59.5l-5 16q31 18 107 18q113 0 142 -44.5t9 -158.5l-16 -94q32 53 74 103t93.5 95t113 72t120.5 27q96 0 153.5 -57.5t57.5 -153.5q0 -56 -18 -166l-49 -289q-32 -180 84 -180q63 0 118.5 48t96.5 130q21 0 32 -13t7 -40 q-6 -40 -37 -91.5t-77.5 -99t-113 -80t-133.5 -32.5q-115 0 -181.5 70t-66.5 186q0 57 31 233l39 226q12 71 -1 100t-48 29q-64 0 -142.5 -89t-146.5 -241.5t-98 -318.5q-10 -57 -10.5 -101.5t3.5 -59.5l5 -16q-31 -18 -107 -18q-113 0 -142 44.5t-9 158.5zM201 1272 q5 88 71.5 153.5t163.5 65.5q47 0 88 -17.5t65.5 -38t58 -38t67.5 -17.5q35 0 64 11.5t45 28t27 32.5t15 28l4 11q51 0 48 -64q-5 -88 -72 -153.5t-164 -65.5q-48 0 -88.5 17.5t-64 38t-57 38t-69.5 17.5q-35 0 -64 -11.5t-45 -27.5t-27 -32.5t-15 -27.5l-4 -12 q-50 0 -47 64z" />
<glyph unicode="&#xf2;" horiz-adv-x="1087" d="M-61 391q0 282 154 457.5t413 175.5q177 0 277 -106.5t100 -284.5q0 -54 -11 -129q43 6 84.5 25t70 41.5t50.5 44t33 35.5l10 14q20 0 30 -14.5t7 -37.5q-10 -59 -99.5 -123.5t-205.5 -78.5q-54 -188 -193.5 -299t-343.5 -111q-168 0 -272 102.5t-104 288.5zM201 303 q0 -97 35 -149t100 -52q85 0 151 91t105 272q-78 60 -78 162q0 54 27 91.5t77 47.5q-8 77 -42 117.5t-91 40.5q-84 0 -155 -98t-111 -312q-18 -95 -18 -211zM231 1532q51 20 127 20q71 0 105.5 -22t54.5 -72l98 -256q-26 -14 -77 -14q-66 0 -101 51z" />
<glyph unicode="&#xf3;" horiz-adv-x="1087" d="M-61 391q0 282 154 457.5t413 175.5q177 0 277 -106.5t100 -284.5q0 -54 -11 -129q43 6 84.5 25t70 41.5t50.5 44t33 35.5l10 14q20 0 30 -14.5t7 -37.5q-10 -59 -99.5 -123.5t-205.5 -78.5q-54 -188 -193.5 -299t-343.5 -111q-168 0 -272 102.5t-104 288.5zM201 303 q0 -97 35 -149t100 -52q85 0 151 91t105 272q-78 60 -78 162q0 54 27 91.5t77 47.5q-8 77 -42 117.5t-91 40.5q-84 0 -155 -98t-111 -312q-18 -95 -18 -211zM455 1202l163 256q31 49 72 71.5t111 22.5q34 0 64.5 -5t44.5 -10l14 -5l-281 -293q-48 -51 -113 -51 q-23 0 -41.5 3.5t-26.5 6.5z" />
<glyph unicode="&#xf4;" horiz-adv-x="1087" d="M-61 391q0 282 154 457.5t413 175.5q177 0 277 -106.5t100 -284.5q0 -54 -11 -129q43 6 84.5 25t70 41.5t50.5 44t33 35.5l10 14q20 0 30 -14.5t7 -37.5q-10 -59 -99.5 -123.5t-205.5 -78.5q-54 -188 -193.5 -299t-343.5 -111q-168 0 -272 102.5t-104 288.5zM201 303 q0 -97 35 -149t100 -52q85 0 151 91t105 272q-78 60 -78 162q0 54 27 91.5t77 47.5q-8 77 -42 117.5t-91 40.5q-84 0 -155 -98t-111 -312q-18 -95 -18 -211zM207 1202l262 334q33 16 86 16q61 0 95.5 -19t60.5 -63l151 -268q-43 -14 -76 -14q-67 0 -101.5 18t-61.5 64 l-76 129l-152 -160q-29 -29 -52.5 -40t-59.5 -11q-24 0 -43 3.5t-26 6.5z" />
<glyph unicode="&#xf5;" horiz-adv-x="1087" d="M-61 391q0 282 154 457.5t413 175.5q177 0 277 -106.5t100 -284.5q0 -54 -11 -129q43 6 84.5 25t70 41.5t50.5 44t33 35.5l10 14q20 0 30 -14.5t7 -37.5q-10 -59 -99.5 -123.5t-205.5 -78.5q-54 -188 -193.5 -299t-343.5 -111q-168 0 -272 102.5t-104 288.5zM201 303 q0 -97 35 -149t100 -52q85 0 151 91t105 272q-78 60 -78 162q0 54 27 91.5t77 47.5q-8 77 -42 117.5t-91 40.5q-84 0 -155 -98t-111 -312q-18 -95 -18 -211zM203 1272q5 88 71.5 153.5t163.5 65.5q47 0 88 -17.5t65.5 -38t58 -38t67.5 -17.5q35 0 64 11.5t45 28t27 32.5 t15 28l4 11q51 0 48 -64q-5 -88 -72 -153.5t-164 -65.5q-48 0 -88.5 17.5t-63.5 38t-56.5 38t-69.5 17.5q-35 0 -64 -11.5t-45 -27.5t-27.5 -32.5t-15.5 -27.5l-4 -12q-50 0 -47 64z" />
<glyph unicode="&#xf6;" horiz-adv-x="1087" d="M-61 391q0 282 154 457.5t413 175.5q177 0 277 -106.5t100 -284.5q0 -54 -11 -129q43 6 84.5 25t70 41.5t50.5 44t33 35.5l10 14q20 0 30 -14.5t7 -37.5q-10 -59 -99.5 -123.5t-205.5 -78.5q-54 -188 -193.5 -299t-343.5 -111q-168 0 -272 102.5t-104 288.5zM201 303 q0 -97 35 -149t100 -52q85 0 151 91t105 272q-78 60 -78 162q0 54 27 91.5t77 47.5q-8 77 -42 117.5t-91 40.5q-84 0 -155 -98t-111 -312q-18 -95 -18 -211zM250 1331q0 56 38 93.5t91 37.5q49 0 79.5 -31.5t30.5 -78.5q0 -53 -36.5 -91t-94.5 -38q-47 0 -77.5 31t-30.5 77z M608 1331q0 57 37 94t92 37q49 0 80 -31.5t31 -78.5q0 -53 -37 -91t-94 -38q-47 0 -78 31t-31 77z" />
<glyph unicode="&#xf7;" horiz-adv-x="999" d="M61 508q0 131 170 131h517q36 0 64 4.5t38 8.5l10 5q17 -14 17 -53q0 -131 -170 -131h-517q-36 0 -64 -4.5t-38 -8.5l-10 -5q-17 14 -17 53zM274 190q0 62 42.5 105t101.5 43q58 0 92.5 -36.5t34.5 -92.5t-41.5 -98.5t-106.5 -42.5q-55 0 -89 34t-34 88zM397 897 q0 62 42.5 104.5t101.5 42.5q58 0 92.5 -36.5t34.5 -92.5t-41.5 -98.5t-106.5 -42.5q-55 0 -89 34.5t-34 88.5z" />
<glyph unicode="&#xf8;" horiz-adv-x="1087" d="M-61 391q0 282 154 457.5t413 175.5q84 0 160 -29q18 27 32 50t18 33l5 9q28 5 65 -18q44 -28 46 -66.5t-37 -99.5q88 -105 88 -270q0 -181 -66.5 -323.5t-196.5 -226t-305 -83.5q-85 0 -155 27q-24 -35 -41.5 -63.5t-22.5 -39.5l-6 -12q-24 -5 -65 18q-35 19 -44 45 t3 59t45 83q-90 104 -90 274zM201 356l381 521q-35 47 -97 47q-84 0 -155 -98t-111 -312q-10 -47 -18 -158zM244 141q33 -39 92 -39q91 0 159 103t107 307q13 76 16 145z" />
<glyph unicode="&#xf9;" horiz-adv-x="1148" d="M-41 238q0 104 25 251l59 340q10 57 10.5 101.5t-3.5 59.5l-5 16q31 18 107 18q113 0 142 -44.5t9 -158.5l-82 -473q-15 -85 3.5 -127.5t64.5 -42.5q62 0 151 137q67 102 125.5 251.5t81.5 283.5q8 50 8 89t-4 53l-4 14q31 18 107 18q113 0 142 -44.5t9 -158.5l-80 -463 q-29 -180 88 -180q55 0 115.5 48.5t99.5 129.5q21 0 32 -13t7 -40q-6 -34 -26 -73.5t-54.5 -80t-76.5 -74t-97 -54.5t-112 -21q-108 0 -174 67.5t-66 188.5q0 41 2 70q-48 -95 -92 -152q-65 -89 -135 -131.5t-154 -42.5q-102 0 -162.5 65.5t-60.5 172.5zM203 1532 q51 20 127 20q70 0 104.5 -22t54.5 -72l99 -256q-27 -14 -78 -14q-65 0 -100 51z" />
<glyph unicode="&#xfa;" horiz-adv-x="1148" d="M-41 238q0 104 25 251l59 340q10 57 10.5 101.5t-3.5 59.5l-5 16q31 18 107 18q113 0 142 -44.5t9 -158.5l-82 -473q-15 -85 3.5 -127.5t64.5 -42.5q62 0 151 137q67 102 125.5 251.5t81.5 283.5q8 50 8 89t-4 53l-4 14q31 18 107 18q113 0 142 -44.5t9 -158.5l-80 -463 q-29 -180 88 -180q55 0 115.5 48.5t99.5 129.5q21 0 32 -13t7 -40q-6 -34 -26 -73.5t-54.5 -80t-76.5 -74t-97 -54.5t-112 -21q-108 0 -174 67.5t-66 188.5q0 41 2 70q-48 -95 -92 -152q-65 -89 -135 -131.5t-154 -42.5q-102 0 -162.5 65.5t-60.5 172.5zM430 1202l164 256 q31 49 71.5 71.5t110.5 22.5q34 0 64.5 -5t44.5 -10l14 -5l-281 -293q-48 -51 -112 -51q-23 0 -42 3.5t-26 6.5z" />
<glyph unicode="&#xfb;" horiz-adv-x="1148" d="M-41 238q0 104 25 251l59 340q10 57 10.5 101.5t-3.5 59.5l-5 16q31 18 107 18q113 0 142 -44.5t9 -158.5l-82 -473q-15 -85 3.5 -127.5t64.5 -42.5q62 0 151 137q67 102 125.5 251.5t81.5 283.5q8 50 8 89t-4 53l-4 14q31 18 107 18q113 0 142 -44.5t9 -158.5l-80 -463 q-29 -180 88 -180q55 0 115.5 48.5t99.5 129.5q21 0 32 -13t7 -40q-6 -34 -26 -73.5t-54.5 -80t-76.5 -74t-97 -54.5t-112 -21q-108 0 -174 67.5t-66 188.5q0 41 2 70q-48 -95 -92 -152q-65 -89 -135 -131.5t-154 -42.5q-102 0 -162.5 65.5t-60.5 172.5zM217 1202l262 334 q33 16 86 16q61 0 95.5 -19t60.5 -63l151 -268q-42 -14 -75 -14q-67 0 -102 18t-62 64l-76 129l-151 -160q-28 -28 -52.5 -39.5t-60.5 -11.5q-24 0 -43 3.5t-26 6.5z" />
<glyph unicode="&#xfc;" horiz-adv-x="1148" d="M-41 238q0 104 25 251l59 340q10 57 10.5 101.5t-3.5 59.5l-5 16q31 18 107 18q113 0 142 -44.5t9 -158.5l-82 -473q-15 -85 3.5 -127.5t64.5 -42.5q62 0 151 137q67 102 125.5 251.5t81.5 283.5q8 50 8 89t-4 53l-4 14q31 18 107 18q113 0 142 -44.5t9 -158.5l-80 -463 q-29 -180 88 -180q55 0 115.5 48.5t99.5 129.5q21 0 32 -13t7 -40q-6 -34 -26 -73.5t-54.5 -80t-76.5 -74t-97 -54.5t-112 -21q-108 0 -174 67.5t-66 188.5q0 41 2 70q-48 -95 -92 -152q-65 -89 -135 -131.5t-154 -42.5q-102 0 -162.5 65.5t-60.5 172.5zM260 1331 q0 56 38 93.5t91 37.5q49 0 80 -31.5t31 -78.5q0 -53 -36.5 -91t-94.5 -38q-47 0 -78 31t-31 77zM618 1331q0 56 37.5 93.5t92.5 37.5q49 0 79.5 -31.5t30.5 -78.5q0 -53 -37 -91t-94 -38q-47 0 -78 31t-31 77z" />
<glyph unicode="&#xfd;" horiz-adv-x="1146" d="M-41 238q0 104 25 251l59 340q10 57 10.5 101.5t-3.5 59.5l-5 16q31 18 107 18q113 0 142 -44.5t9 -158.5l-82 -473q-29 -170 68 -170q62 0 151 137q64 99 119 233.5t84 280.5q11 57 11.5 101.5t-4.5 59.5l-5 16q31 18 107 18q113 0 142 -44.5t9 -158.5l-110 -649 q24 9 62 26t127 65.5t144 92.5q21 0 32 -13t7 -34q-5 -26 -67 -73q-114 -86 -326 -189l-4 -24q-61 -361 -205 -550.5t-368 -189.5q-104 0 -167 59.5t-63 155.5q0 170 172 318q73 63 157.5 114t217.5 117l43 264q-38 -73 -84 -137q-65 -89 -135 -131.5t-154 -42.5 q-102 0 -162.5 65.5t-60.5 172.5zM80 -489q0 -42 24 -67.5t70 -25.5q109 0 190 127.5t125 372.5q-202 -105 -288 -188q-121 -118 -121 -219zM410 1202l163 256q31 49 72 71.5t111 22.5q34 0 64.5 -5t44.5 -10l14 -5l-281 -293q-48 -51 -113 -51q-23 0 -41.5 3.5t-25.5 6.5z " />
<glyph unicode="&#xfe;" horiz-adv-x="1142" d="M-174 -514l324 1855q10 57 10.5 101.5t-4.5 59.5l-4 16q30 18 106 18q113 0 142.5 -45t9.5 -158l-97 -547q136 238 330 238q141 0 218 -93t77 -255q0 -149 -42 -277.5t-112.5 -215t-162 -135t-189.5 -48.5q-146 0 -239 100l-107 -622q-10 -57 -10.5 -101t4.5 -59l4 -16 q-31 -19 -107 -19q-113 0 -142 44.5t-9 158.5zM215 229q57 -90 156 -90q58 0 113.5 44t97.5 118t68 179.5t26 221.5q0 164 -105 164q-88 0 -190 -161q-107 -173 -152 -398z" />
<glyph unicode="&#xff;" horiz-adv-x="1146" d="M-41 238q0 104 25 251l59 340q10 57 10.5 101.5t-3.5 59.5l-5 16q31 18 107 18q113 0 142 -44.5t9 -158.5l-82 -473q-29 -170 68 -170q62 0 151 137q64 99 119 233.5t84 280.5q11 57 11.5 101.5t-4.5 59.5l-5 16q31 18 107 18q113 0 142 -44.5t9 -158.5l-110 -649 q24 9 62 26t127 65.5t144 92.5q21 0 32 -13t7 -34q-5 -26 -67 -73q-114 -86 -326 -189l-4 -24q-61 -361 -205 -550.5t-368 -189.5q-104 0 -167 59.5t-63 155.5q0 170 172 318q73 63 157.5 114t217.5 117l43 264q-38 -73 -84 -137q-65 -89 -135 -131.5t-154 -42.5 q-102 0 -162.5 65.5t-60.5 172.5zM80 -489q0 -42 24 -67.5t70 -25.5q109 0 190 127.5t125 372.5q-202 -105 -288 -188q-121 -118 -121 -219zM219 1331q0 56 38 93.5t91 37.5q49 0 80 -31.5t31 -78.5q0 -53 -36.5 -91t-94.5 -38q-47 0 -78 31t-31 77zM578 1331q0 57 37 94 t92 37q49 0 79.5 -31.5t30.5 -78.5q0 -53 -37 -91t-94 -38q-47 0 -77.5 31t-30.5 77z" />
<glyph unicode="&#x152;" horiz-adv-x="2052" d="M102 569q0 277 90.5 496t260 345t389.5 126q236 0 368 -164q74 77 185 120.5t243 43.5q195 0 303.5 -92t108.5 -227q0 -102 -52 -165t-147 -63q-39 0 -70.5 12.5t-42.5 24.5l-12 12q4 3 10 10t22 29t28.5 46.5t22.5 63t10 77.5q0 159 -158 159q-118 0 -199.5 -99 t-81.5 -237q0 -50 12 -92t38 -78t74.5 -55t115.5 -16q2 -9 2 -23q0 -78 -109 -78h-47q-120 -29 -189 -111.5t-69 -189.5q0 -122 93 -198t288 -76q181 0 312.5 57.5t193.5 128.5q45 0 35 -45q-9 -46 -67 -100t-145.5 -101t-211.5 -78.5t-250 -31.5q-147 0 -260 41t-176 119 q-180 -160 -430 -160q-221 0 -354.5 145.5t-133.5 423.5zM383 487q0 -199 63 -286.5t168 -87.5q139 0 248.5 167t161.5 488q23 141 23 281q0 198 -63 286t-169 88q-132 0 -245 -162.5t-164 -492.5q-23 -161 -23 -281z" />
<glyph unicode="&#x153;" horiz-adv-x="1595" d="M-61 391q0 282 154 457.5t413 175.5q199 0 299 -133q155 133 354 133q146 0 219.5 -63t73.5 -150q0 -268 -575 -377q9 -119 87.5 -195.5t204.5 -76.5q78 0 146 17.5t116.5 47.5t81.5 62t56 67q44 0 33 -53q-10 -40 -51 -90t-106.5 -98.5t-164.5 -81.5t-207 -33 q-236 0 -366 152q-149 -152 -392 -152q-168 0 -272 102.5t-104 288.5zM201 303q0 -97 35 -149t100 -52q91 0 159 103t107 307q19 100 19 211q0 98 -35.5 149.5t-100.5 51.5q-84 0 -155 -98t-111 -312q-18 -95 -18 -211zM879 530q179 42 266.5 127.5t87.5 192.5q0 32 -20 52 t-52 20q-45 0 -90.5 -26t-85.5 -73.5t-69 -124t-37 -168.5z" />
<glyph unicode="&#x178;" horiz-adv-x="1400" d="M-41 1186q0 156 137 253t379 97h66q63 0 109 -32t59 -89l180 -741l29 43q315 471 315 745q0 21 -3 39.5t-6 26.5l-3 8q28 18 77 18q164 0 164 -137q0 -38 -15.5 -85.5t-38 -92t-66.5 -112.5t-81 -120.5t-102.5 -146t-111.5 -160.5l-123 -180l-54 -305 q-11 -64 -11.5 -112.5t4.5 -65.5l5 -17q-32 -20 -116 -20q-111 0 -143 50.5t-11 172.5l51 297l-217 899q-108 -13 -164.5 -73t-56.5 -144q0 -43 22 -68.5t60 -25.5q10 0 19 1.5t12 2.5l4 2q2 -6 2 -18q0 -42 -42 -78.5t-114 -36.5q-99 0 -157 56t-58 149zM686 1884 q0 56 38 93.5t91 37.5q49 0 80 -31.5t31 -78.5q0 -53 -36.5 -91t-94.5 -38q-47 0 -78 31t-31 77zM1044 1884q0 56 37.5 93.5t92.5 37.5q49 0 79.5 -31.5t30.5 -78.5q0 -53 -37 -91t-94 -38q-47 0 -78 31t-31 77z" />
<glyph unicode="&#x2c6;" horiz-adv-x="798" d="M143 1202l263 334q33 16 86 16q61 0 95 -19t60 -63l152 -268q-43 -14 -76 -14q-67 0 -102 18t-62 64l-76 129l-151 -160q-28 -28 -52.5 -39.5t-60.5 -11.5q-24 0 -43 3.5t-26 6.5z" />
<glyph unicode="&#x2dc;" horiz-adv-x="864" d="M145 1272q5 88 72 153.5t164 65.5q47 0 88 -17.5t65 -38t57.5 -38t67.5 -17.5q35 0 64 11.5t45 28t27.5 32.5t15.5 28l4 11q50 0 47 -64q-5 -88 -71.5 -153.5t-163.5 -65.5q-48 0 -88.5 17.5t-64 38t-57 38t-69.5 17.5q-35 0 -64 -11.5t-45 -27.5t-27 -32.5t-15 -27.5 l-4 -12q-51 0 -48 64z" />
<glyph unicode="&#x2000;" horiz-adv-x="1033" />
<glyph unicode="&#x2001;" horiz-adv-x="2066" />
<glyph unicode="&#x2002;" horiz-adv-x="1033" />
<glyph unicode="&#x2003;" horiz-adv-x="2066" />
<glyph unicode="&#x2004;" horiz-adv-x="688" />
<glyph unicode="&#x2005;" horiz-adv-x="516" />
<glyph unicode="&#x2006;" horiz-adv-x="344" />
<glyph unicode="&#x2007;" horiz-adv-x="344" />
<glyph unicode="&#x2008;" horiz-adv-x="258" />
<glyph unicode="&#x2009;" horiz-adv-x="413" />
<glyph unicode="&#x200a;" horiz-adv-x="114" />
<glyph unicode="&#x2010;" horiz-adv-x="999" d="M-41 508q0 131 170 131h516q36 0 64.5 4.5t38.5 8.5l10 5q16 -14 16 -53q0 -131 -170 -131h-516q-36 0 -64.5 -4.5t-38.5 -8.5l-10 -5q-16 14 -16 53z" />
<glyph unicode="&#x2011;" horiz-adv-x="999" d="M-41 508q0 131 170 131h516q36 0 64.5 4.5t38.5 8.5l10 5q16 -14 16 -53q0 -131 -170 -131h-516q-36 0 -64.5 -4.5t-38.5 -8.5l-10 -5q-16 14 -16 53z" />
<glyph unicode="&#x2012;" horiz-adv-x="999" d="M-41 508q0 131 170 131h516q36 0 64.5 4.5t38.5 8.5l10 5q16 -14 16 -53q0 -131 -170 -131h-516q-36 0 -64.5 -4.5t-38.5 -8.5l-10 -5q-16 14 -16 53z" />
<glyph unicode="&#x2013;" horiz-adv-x="1265" d="M-41 508q0 131 170 131h782q36 0 64.5 4.5t38.5 8.5l10 5q16 -14 16 -53q0 -131 -170 -131h-782q-36 0 -64.5 -4.5t-38.5 -8.5l-10 -5q-16 14 -16 53z" />
<glyph unicode="&#x2014;" horiz-adv-x="1511" d="M-41 508q0 131 170 131h1028q36 0 64.5 4.5t38.5 8.5l10 5q16 -14 16 -53q0 -131 -170 -131h-1028q-36 0 -64.5 -4.5t-38.5 -8.5l-10 -5q-16 14 -16 53z" />
<glyph unicode="&#x2018;" horiz-adv-x="419" d="M143 1233q0 68 36.5 145t89.5 127.5t98 50.5q24 0 37.5 -13t13.5 -30q-67 -61 -84 -157q40 -10 63 -42.5t23 -76.5q0 -62 -42.5 -104.5t-101.5 -42.5t-96 39t-37 104z" />
<glyph unicode="&#x2019;" horiz-adv-x="419" d="M143 1389q0 62 42.5 104.5t101.5 42.5t96 -39t37 -104q0 -68 -36.5 -145t-89 -128t-97.5 -51q-24 0 -38 13t-14 30q67 61 84 158q-40 10 -63 42.5t-23 76.5z" />
<glyph unicode="&#x201a;" horiz-adv-x="522" d="M41 102q0 62 42 105t101 43t96 -39.5t37 -104.5q0 -68 -36.5 -144.5t-89 -127.5t-97.5 -51q-24 0 -37.5 13t-13.5 30q67 61 84 158q-40 11 -63 42.5t-23 75.5z" />
<glyph unicode="&#x201c;" horiz-adv-x="768" d="M143 1233q0 68 36.5 145t89.5 127.5t98 50.5q24 0 37.5 -13t13.5 -30q-67 -61 -84 -157q40 -10 63 -42.5t23 -76.5q0 -62 -42.5 -104.5t-101.5 -42.5t-96 39t-37 104zM492 1233q0 68 36.5 144.5t89 127.5t97.5 51q24 0 37.5 -13t13.5 -30q-67 -61 -84 -157 q40 -10 63 -42.5t23 -76.5q0 -62 -42 -104.5t-101 -42.5t-96 39t-37 104z" />
<glyph unicode="&#x201d;" horiz-adv-x="768" d="M143 1389q0 62 42.5 104.5t101.5 42.5t96 -39t37 -104q0 -68 -36.5 -145t-89 -128t-97.5 -51q-24 0 -38 13t-14 30q67 61 84 158q-40 10 -63 42.5t-23 76.5zM492 1389q0 62 42 104.5t101 42.5t96 -39t37 -104q0 -68 -36.5 -145t-89 -128t-97.5 -51q-24 0 -37.5 13 t-13.5 30q67 61 84 158q-40 10 -63 42.5t-23 76.5z" />
<glyph unicode="&#x201e;" horiz-adv-x="870" d="M41 102q0 62 42 105t101 43t96 -39.5t37 -104.5q0 -68 -36.5 -144.5t-89 -127.5t-97.5 -51q-24 0 -37.5 13t-13.5 30q67 61 84 158q-40 11 -63 42.5t-23 75.5zM389 102q0 62 42 105t101 43t96.5 -39.5t37.5 -104.5q0 -68 -36.5 -145t-89.5 -127.5t-98 -50.5 q-24 0 -37.5 13t-13.5 30q67 61 84 158q-40 11 -63 42.5t-23 75.5z" />
<glyph unicode="&#x2022;" horiz-adv-x="1017" d="M328 618q0 84 56.5 141.5t135.5 57.5q77 0 123.5 -48.5t46.5 -123.5q0 -77 -54.5 -133.5t-143.5 -56.5q-72 0 -118 45.5t-46 117.5z" />
<glyph unicode="&#x2026;" horiz-adv-x="1421" d="M41 102q0 62 42 105t101 43q58 0 92.5 -36.5t34.5 -92.5q0 -57 -41 -99t-106 -42q-55 0 -89 34t-34 88zM494 102q0 62 42 105t101 43q58 0 92.5 -36.5t34.5 -92.5t-41.5 -98.5t-106.5 -42.5q-55 0 -88.5 34t-33.5 88zM946 102q0 62 42.5 105t101.5 43q58 0 92.5 -36.5 t34.5 -92.5t-41.5 -98.5t-106.5 -42.5q-55 0 -89 34t-34 88z" />
<glyph unicode="&#x202f;" horiz-adv-x="413" />
<glyph unicode="&#x2039;" horiz-adv-x="972" d="M41 512l702 440q32 20 55.5 37t30.5 24l7 7q20 -6 38 -41q17 -34 17 -66q0 -86 -107 -145l-456 -258l356 -346q25 -25 48.5 -41t34.5 -19l11 -4q1 -20 -26 -49q-48 -51 -107 -51q-61 0 -121 55z" />
<glyph unicode="&#x203a;" horiz-adv-x="1013" d="M41 111q0 87 106 145l457 258l-356 346q-25 25 -48.5 41t-34.5 19l-11 4q-1 20 26 49q48 51 107 51q61 0 121 -55l483 -457l-703 -440q-32 -20 -55 -37t-30 -24l-7 -7q-21 6 -39 41q-16 32 -16 66z" />
<glyph unicode="&#x205f;" horiz-adv-x="516" />
<glyph unicode="&#x20ac;" horiz-adv-x="1386" d="M0 582q0 27 18.5 43t51.5 16h166q0 84 8 139h-191q-14 27 -14 54t18.5 43t51.5 16h155q69 282 268 462.5t437 180.5q182 0 279.5 -85.5t97.5 -215.5q0 -91 -52 -156t-147 -65q-26 0 -47.5 6t-33 14t-19.5 16.5t-11 14.5l-2 6l9 6t21 19.5t26 34.5t20.5 52.5t9.5 71.5 q0 79 -39 123.5t-116 44.5q-122 0 -247.5 -145.5t-172.5 -384.5h481q14 -26 14 -53t-18 -43.5t-51 -16.5h-445q-7 -107 -6 -139h385q15 -26 15 -53t-18.5 -43.5t-51.5 -16.5h-318q36 -176 146.5 -267t277.5 -91q190 0 285 115q49 0 35 -45q-10 -35 -45 -78t-90 -78 q-129 -84 -310 -84q-235 0 -394.5 140.5t-192.5 387.5h-230q-14 27 -14 54z" />
<glyph unicode="&#x2122;" horiz-adv-x="1634" d="M41 1350q0 78 75 132t216 54q51 0 187.5 -11.5t240.5 -11.5q25 0 48 4.5t34 8.5l10 4q10 -10 10 -41q0 -47 -31.5 -81t-95.5 -34q-63 0 -149 23l-84 -484q-5 -30 -5.5 -53t1.5 -31l2 -8q-41 -8 -80 -8q-67 0 -91.5 24.5t-15.5 80.5l90 522q-35 6 -71 6q-56 0 -87.5 -25 t-31.5 -67q0 -24 14.5 -37.5t34.5 -13.5l21 4q0 -40 -31 -65t-84 -25q-57 0 -92 37t-35 96zM623 899q0 24 6 42t12 24l6 6q18 -13 41 -13q67 0 121 187l61 209q16 53 22.5 96.5t5.5 60.5l-1 17q49 8 82 8q103 0 111 -90l32 -377l168 344q33 67 45 113q15 10 54 10 q71 0 106.5 -25.5t26.5 -80.5l-74 -422q-15 -84 29 -84q13 0 23.5 9t15.5 19l4 9q39 0 30 -48q-8 -40 -45.5 -70t-93.5 -30q-149 0 -149 160q0 42 8 92l26 156l-143 -299q-12 -24 -20.5 -48t-11.5 -36l-3 -11q-30 -14 -67 -14q-40 0 -66.5 26t-30.5 70l-28 312l-68 -252 q-23 -82 -56.5 -119t-92.5 -37q-34 0 -60 23.5t-26 62.5z" />
<glyph unicode="&#x25fc;" horiz-adv-x="1024" d="M0 0v1024h1024v-1024h-1024z" />
</font>
</defs>
</svg>
