<?xml version="1.0" standalone="no"?>
<!DOCTYPE svg PUBLIC "-//W3C//DTD SVG 1.1//EN" "http://www.w3.org/Graphics/SVG/1.1/DTD/svg11.dtd" >
<svg xmlns="http://www.w3.org/2000/svg" xmlns:xlink="http://www.w3.org/1999/xlink" version="1.1">
<metadata></metadata>
<defs>
<font id="microsoft_yi_baitiregular" horiz-adv-x="850" vert-adv-y="2048" >
<font-face units-per-em="2048" ascent="1638" descent="-410" />
<missing-glyph horiz-adv-x="900" />
<glyph horiz-adv-x="0" vert-adv-y="0" />
<glyph horiz-adv-x="682" />
<glyph unicode=" " horiz-adv-x="900" vert-adv-y="2191" />
<glyph unicode="!" horiz-adv-x="646" vert-adv-y="2191" d="M250 0v146h146v-146h-146zM250 873v222h146v-222l-40 -584h-66z" />
<glyph unicode="&#x22;" horiz-adv-x="724" vert-adv-y="2191" d="M151 1095h154l-35 -305h-83zM418 1095h154l-35 -305h-82z" />
<glyph unicode="#" horiz-adv-x="1314" vert-adv-y="2191" d="M201 319q5 24 8 37t7 31h208l84 322h-215q5 23 8 36t7 30h219q17 72 37 154.5t37 156.5h57l-75 -311h267q17 72 37 154t37 157h59l-71 -311h201q-5 -24 -8 -36t-7 -30h-207l-83 -322h214q-5 -25 -9 -37.5t-8 -30.5h-217q-17 -75 -37 -158.5t-37 -160.5h-59l75 319h-266 q-18 -75 -37.5 -158.5t-37.5 -160.5h-58l75 319h-205zM479 387h268l88 322h-272z" />
<glyph unicode="$" horiz-adv-x="856" vert-adv-y="2191" d="M117 265h86q4 -81 62 -134.5t151 -66.5v487q-55 13 -103 41.5t-84 66t-56.5 80.5t-20.5 87q0 124 68.5 199.5t195.5 89.5v132h55v-131q122 -6 237 -79l-64 -64q-41 26 -84 41.5t-89 19.5v-416q69 -16 129.5 -49t106 -78t71.5 -100t26 -114q0 -63 -25.5 -116.5t-70 -92.5 t-105.5 -62t-132 -26v-141h-55v141q-62 7 -114.5 32.5t-92 64t-64 87t-28.5 101.5zM238 826q0 -122 178 -190v395q-37 -8 -69.5 -24.5t-56.5 -42t-38 -60t-14 -78.5zM471 61q49 4 94 23t79 48.5t54.5 66.5t20.5 78q0 44 -12 80t-40.5 67t-76 57.5t-119.5 52.5v-473z" />
<glyph unicode="%" horiz-adv-x="1213" vert-adv-y="2191" d="M71 823q0 139 61 215.5t169 76.5q53 0 95.5 -20t72 -57.5t45.5 -91.5t16 -123q0 -139 -61.5 -214t-167.5 -75q-108 0 -169 75t-61 214zM155 823q0 -120 39 -174.5t107 -54.5q67 0 105.5 54.5t38.5 174.5q0 121 -38.5 176t-105.5 55q-68 0 -107 -55t-39 -176zM271 0 l582 1095h87l-582 -1095h-87zM682 272q0 138 61 213.5t168 75.5q108 0 169.5 -75.5t61.5 -213.5q0 -139 -61.5 -215.5t-169.5 -76.5q-107 0 -168 76t-61 216zM767 272q0 -121 38.5 -176.5t105.5 -55.5q68 0 106.5 55.5t38.5 176.5q0 120 -39 174.5t-106 54.5t-105.5 -54.5 t-38.5 -174.5z" />
<glyph unicode="&#x26;" horiz-adv-x="1130" vert-adv-y="2191" d="M143 296q0 196 225 331q-75 81 -113 143.5t-38 107.5q0 55 18.5 98t50.5 71.5t76.5 43.5t95.5 15q52 0 97 -17.5t78.5 -48t52.5 -72.5t19 -90q0 -35 -16 -70t-45 -68.5t-69.5 -64t-89.5 -55.5l327 -323q12 25 23 57t20 69.5t14.5 78t6.5 81.5h75q-3 -193 -82 -335 l175 -177l-55 -56l-158 156q-39 -56 -81 -92.5t-86.5 -58.5t-91.5 -31t-95 -9q-70 0 -131 24t-106 66.5t-71 100.5t-26 125zM223 301q0 -53 20 -98t55.5 -77.5t85 -51t109.5 -18.5q155 0 276 175l-355 353q-39 -26 -74 -59.5t-61 -71t-41 -76.5t-15 -76zM298 878 q0 -25 12.5 -52t33 -54t45 -53.5t48.5 -51.5q39 24 72.5 46.5t58 47t39 53t14.5 64.5q0 75 -46.5 115t-119.5 40q-40 0 -69.5 -13t-49 -35t-29 -49.5t-9.5 -57.5z" />
<glyph unicode="'" horiz-adv-x="311" vert-adv-y="2191" d="M78 1095h155l-36 -305h-82z" />
<glyph unicode="(" horiz-adv-x="1033" vert-adv-y="2191" d="M345 483q0 89 21.5 176t60.5 168.5t93.5 155t120.5 135.5q15 -16 26.5 -28.5t26.5 -28.5q-132 -142 -198.5 -286.5t-66.5 -291.5q0 -78 20.5 -156.5t57 -153t86 -142t106.5 -122.5l-51 -55q-154 145 -228.5 300t-74.5 329z" />
<glyph unicode=")" horiz-adv-x="1033" vert-adv-y="2191" d="M349 -91q58 55 107.5 122.5t86 142t57 153t20.5 156.5q0 147 -67 291.5t-198 286.5q15 17 26.5 29.5t26.5 27.5q66 -62 120 -135.5t93 -155t60.5 -169t21.5 -175.5q0 -171 -76 -328.5t-225 -300.5q-15 16 -27 28t-26 27z" />
<glyph unicode="*" horiz-adv-x="1188" vert-adv-y="2191" d="M216 487v61h311q-23 23 -51 51.5t-58 58.5t-59 59.5t-54 53.5l39 39l225 -226v319h52v-315q21 21 49.5 49t58.5 58t59.5 60t54.5 55l23 -23t19 -18l-222 -221h310v-61h-308l48 -48t56.5 -56t59 -57.5t53.5 -52.5q-14 -13 -22.5 -21.5t-17.5 -16.5l-221 220v-317h-52v318 q-21 -22 -49.5 -50.5l-59 -59t-60.5 -61t-55 -55.5l-40 39l218 218h-307z" />
<glyph unicode="+" horiz-adv-x="915" vert-adv-y="2191" d="M157 413v87h259v257h87v-257h255v-87h-255v-259h-87v259h-259z" />
<glyph unicode="," horiz-adv-x="488" vert-adv-y="2191" d="M171 0v146h146v-146q0 -94 -37 -150t-109 -56v68q71 0 71 138h-71z" />
<glyph unicode="-" horiz-adv-x="915" vert-adv-y="2191" d="M157 413v87h601v-87h-601z" />
<glyph unicode="." horiz-adv-x="488" vert-adv-y="2191" d="M171 0v146h146v-146h-146z" />
<glyph unicode="/" horiz-adv-x="885" vert-adv-y="2191" d="M110 -4l649 1103l67 -42l-649 -1104z" />
<glyph unicode="0" horiz-adv-x="1050" vert-adv-y="2191" d="M131 548q0 114 26.5 217t76.5 180.5t123.5 123.5t166.5 46t166.5 -45.5t124.5 -123t77.5 -180.5t26.5 -218t-27 -218t-77.5 -181t-124 -123.5t-166.5 -45.5t-166 46t-123.5 124t-77 181t-26.5 217zM211 548q0 -98 20 -186t59.5 -155t98.5 -106t136 -39q78 0 137 39.5 t98.5 106.5t59.5 155t20 185q0 99 -20.5 187.5t-60 154.5t-98.5 105t-136 39q-76 0 -134.5 -38.5t-98.5 -105t-60.5 -155t-20.5 -187.5z" />
<glyph unicode="1" horiz-adv-x="1050" vert-adv-y="2191" d="M350 811v80q123 5 196.5 56t96.5 148h57v-1095h-80v890q-51 -33 -118 -55t-152 -24z" />
<glyph unicode="2" horiz-adv-x="1050" vert-adv-y="2191" d="M221 952q25 39 59.5 69t75 51t85 32t89.5 11q66 0 121 -21.5t94.5 -60.5t61.5 -94t22 -123q0 -130 -123 -239l-250 -203q-68 -60 -96.5 -133t-28.5 -159h489v-82h-587q-1 21 -1.5 33.5t-0.5 23.5q0 98 32.5 185.5t98.5 159.5l247 209q70 54 104.5 105.5t35.5 99.5 q0 46 -13.5 86t-41 69t-68.5 46t-96 17q-81 0 -141.5 -30t-105.5 -95z" />
<glyph unicode="3" horiz-adv-x="1050" vert-adv-y="2191" d="M185 257h80q3 -42 23.5 -78.5t54 -62.5t79.5 -41t100 -15q56 0 104 18t83.5 50.5t55.5 78t20 101.5q0 58 -20.5 102.5t-57.5 74.5t-90 45t-117 15h-35v80h11q116 0 184 52t68 158q0 48 -16 85.5t-45 63t-68.5 38.5t-86.5 13q-92 0 -155 -44.5t-77 -135.5h-79 q11 61 38 109.5t67 82t91.5 51t111.5 17.5q70 0 125 -22t93.5 -60t59 -89.5t20.5 -111.5q0 -32 -6.5 -67t-22 -66.5t-41.5 -57.5t-64 -40q46 -17 81.5 -46t60 -67t37 -83t12.5 -93q0 -74 -26 -135.5t-71.5 -105t-108.5 -67.5t-136 -24q-72 0 -131.5 19.5t-103 55.5t-70 87 t-32.5 115z" />
<glyph unicode="4" horiz-adv-x="1050" vert-adv-y="2191" d="M152 336v92l438 667h114v-679h194v-80h-194v-336h-80v336h-472zM233 416h391v595z" />
<glyph unicode="5" horiz-adv-x="1050" vert-adv-y="2191" d="M178 255h89q9 -51 31 -88t54.5 -60.5t72 -35t83.5 -11.5q73 0 126.5 26t88.5 68.5t51.5 96t16.5 109.5q0 58 -18 107t-52.5 85t-84.5 56t-114 20q-63 0 -124.5 -22t-106.5 -70h-82q11 144 22 280t23 279h564v-80h-480l-37 -379q23 22 52.5 36.5t61.5 22t65 10.5t63 3 q70 0 130.5 -27t104 -73.5t68.5 -109.5t25 -135q0 -81 -22.5 -151t-68 -121.5t-113.5 -81t-159 -29.5q-65 0 -121 18t-99.5 52.5t-72 86t-37.5 118.5z" />
<glyph unicode="6" horiz-adv-x="1050" vert-adv-y="2191" d="M184 506q0 301 89 455t278 154q114 0 190 -64t100 -184h-80q-15 81 -74 124t-143 43q-57 0 -104.5 -30.5t-83.5 -89t-58 -143t-27 -192.5q67 54 135.5 82.5t149.5 28.5q70 0 127.5 -27.5t97.5 -75t62 -109.5t22 -131q0 -74 -19.5 -140.5t-60.5 -116.5t-103 -80t-143 -30 q-87 0 -153 35t-111 102t-68 165t-23 224zM278 476q4 -206 73 -311t185 -105q57 0 101.5 23.5t75 62t46.5 88.5t16 103q0 54 -16.5 103.5t-47.5 87t-76.5 60t-102.5 22.5q-32 0 -66.5 -10.5t-67.5 -28.5t-64 -42.5t-56 -52.5z" />
<glyph unicode="7" horiz-adv-x="1050" vert-adv-y="2191" d="M180 1013v82h690v-76l-404 -1019h-90l403 1013h-599z" />
<glyph unicode="8" horiz-adv-x="1050" vert-adv-y="2191" d="M193 279q0 85 55 158.5t184 132.5q-107 61 -151.5 131t-44.5 147q0 63 22 111.5t60.5 81.5t91 49.5t114.5 16.5t115 -16.5t92 -49t61 -81t22 -112.5q0 -77 -45 -150t-136 -125q69 -35 112.5 -69t68.5 -70t34 -74t9 -81q0 -74 -25.5 -129.5t-70 -93.5t-105.5 -57t-132 -19 t-131.5 19t-104.5 57t-69.5 93.5t-25.5 129.5zM273 279q0 -54 22 -95t57.5 -68.5t80.5 -41.5t91 -14q51 0 97.5 14t81 41.5t55 68.5t19.5 95q-5 54 -27 90.5t-55.5 63.5t-77.5 49t-93 48q-88 -40 -138.5 -76.5t-75.5 -68.5t-31 -58.5t-6 -47.5zM316 848q0 -38 15.5 -70.5 t44 -61t68 -54t88.5 -48.5q97 42 149 100.5t52 133.5q0 44 -15 77.5t-43 56t-66.5 34t-84.5 11.5t-84.5 -11.5t-66 -34t-42.5 -56t-15 -77.5z" />
<glyph unicode="9" horiz-adv-x="1050" vert-adv-y="2191" d="M186 741q0 74 21.5 141.5t62.5 119.5t101.5 82.5t137.5 30.5q86 0 152 -35.5t111 -104t68.5 -168.5t23.5 -228q0 -299 -89.5 -449t-279.5 -150q-115 0 -191 62.5t-96 177.5h82q6 -44 23.5 -74.5t45 -49.5t64.5 -27.5t81 -8.5q57 0 105 28t85 83t60.5 137.5t29.5 190.5 q-25 -19 -54 -36.5t-63.5 -31.5t-75.5 -22.5t-91 -8.5q-70 0 -128 27t-99 73.5t-64 108.5t-23 132zM266 750q0 -55 16.5 -104t48 -86t78 -58.5t105.5 -21.5q32 0 67 8.5t70 24t68 37.5t62 48q0 108 -20.5 189.5t-56.5 136.5t-85.5 83t-107.5 28q-57 0 -102.5 -25t-77 -65 t-48.5 -91.5t-17 -103.5z" />
<glyph unicode=":" horiz-adv-x="488" vert-adv-y="2191" d="M171 0v146h146v-146h-146zM171 447v146h146v-146h-146z" />
<glyph unicode=";" horiz-adv-x="488" vert-adv-y="2191" d="M171 0v146h146v-146q0 -94 -37 -150t-109 -56v68q71 0 71 138h-71zM171 447v146h146v-146h-146z" />
<glyph unicode="&#x3c;" horiz-adv-x="1207" vert-adv-y="2191" d="M181 481v81q207 97 410.5 195t409.5 196q8 -29 12.5 -49.5t10.5 -47.5l-702 -333l701 -334q-6 -27 -12 -50.5t-11 -49.5q-105 50 -206.5 99t-203 97t-203 97t-206.5 99z" />
<glyph unicode="=" horiz-adv-x="862" vert-adv-y="2191" d="M159 300v87h544v-87h-544zM159 528v87h544v-87h-544z" />
<glyph unicode="&#x3e;" horiz-adv-x="1207" vert-adv-y="2191" d="M183 856q6 26 12 49t11 48q104 -50 206 -98.5l204 -97t204 -97.5t206 -98v-81q-208 -100 -410 -195.5t-409 -195.5q-8 30 -12.5 51.5t-10.5 48.5l701 333q-83 39 -172 81t-179 85t-178.5 85t-172.5 82z" />
<glyph unicode="?" horiz-adv-x="1167" vert-adv-y="2191" d="M288 801q4 67 28 124.5t65 99.5t97.5 66t124.5 24q58 0 108.5 -20t88 -56t59 -85.5t21.5 -107.5q0 -50 -12 -89t-33.5 -71t-50.5 -59t-63 -54q-28 -23 -53 -46t-43.5 -49t-29.5 -57t-11 -69v-93h-80v82q0 60 13.5 103t37.5 77.5t57.5 63.5t73.5 61q24 19 44.5 40t36 45.5 t24.5 53t9 61.5q0 37 -17.5 71t-45 60t-63 42t-71.5 16q-50 0 -92 -18t-73 -49.5t-49.5 -74t-21.5 -92.5h-79zM471 0v146h146v-146h-146z" />
<glyph unicode="@" horiz-adv-x="1512" vert-adv-y="2191" d="M165 478q0 136 47 254.5t129 206t192.5 137.5t238.5 50q133 0 240 -46t182 -129.5t115.5 -201t40.5 -259.5q0 -87 -16.5 -164t-46.5 -135.5t-72 -92.5t-92 -34q-29 0 -56.5 8.5t-52 26.5t-44 47t-32.5 70q-48 -45 -110 -65t-123 -20q-59 0 -106 23.5t-80 67t-50.5 105 t-17.5 138.5q0 72 23 132t62.5 103.5t93.5 67.5t117 24q39 0 85.5 -17t103.5 -50v77h81v-533q0 -60 28.5 -96t82.5 -36q34 0 63 28t49 75.5t31.5 110.5t11.5 134q0 133 -35 238.5t-101 179t-161 112.5t-214 39q-114 0 -212 -46t-170.5 -125t-114 -184.5t-41.5 -223.5 q0 -127 38.5 -233t109 -182.5t168.5 -119t218 -42.5q66 0 125.5 6.5t115.5 21.5v-75q-57 -12 -116.5 -17.5t-124.5 -5.5q-133 0 -243.5 48.5t-190.5 135t-124.5 206t-44.5 260.5zM533 468q0 -126 53 -187.5t150 -61.5q57 0 106.5 22t92.5 58v350q-48 23 -91.5 41t-83.5 18 q-109 0 -168 -59.5t-59 -180.5z" />
<glyph unicode="A" horiz-adv-x="1037" vert-adv-y="2191" d="M27 0q54 142 106.5 278t104.5 270.5t104.5 270.5t106.5 277h113l447 -1096h-96l-134 352h-539q-29 -83 -63 -175.5t-65 -176.5h-85zM261 415h495l-254 609z" />
<glyph unicode="B" horiz-adv-x="1037" vert-adv-y="2191" d="M144 0v1095h396q165 0 252.5 -62.5t87.5 -199.5q0 -38 -7.5 -78.5t-27.5 -75.5t-55 -62.5t-90 -39.5q77 -7 123.5 -33.5t72 -64.5t34 -83.5t8.5 -88.5q0 -149 -100.5 -228t-295.5 -79h-398zM224 80h317q310 0 310 227q0 59 -16 102t-54.5 70.5t-102 41t-159.5 13.5h-295 v-454zM224 614h294q146 0 215 47t69 158q0 100 -64 148.5t-205 48.5l-309 -1v-401z" />
<glyph unicode="C" horiz-adv-x="1122" vert-adv-y="2191" d="M91 551q0 130 35 234t100.5 177.5t158 113t207.5 39.5q79 0 150.5 -23t128.5 -64.5t96 -99t54 -126.5h-83q-11 49 -41 91.5t-75 74t-103.5 49.5t-125.5 18q-95 0 -172.5 -31t-132 -91.5t-84 -151t-29.5 -210.5t29.5 -211.5t84 -153.5t131 -94t170.5 -32q142 0 234 63.5 t114 185.5h83q-12 -78 -49 -139.5t-93 -103.5t-129 -64t-158 -22q-116 0 -208.5 40.5t-157.5 114.5t-100 179.5t-35 236.5z" />
<glyph unicode="D" horiz-adv-x="1122" vert-adv-y="2191" d="M142 0v1094h331q277 0 415 -133.5t138 -404.5q0 -556 -553 -556h-331zM222 80h249q137 0 227.5 32t144.5 93.5t76 149.5t22 201q0 108 -21.5 193t-75.5 144.5t-144.5 90.5t-228.5 31h-249v-935z" />
<glyph unicode="E" horiz-adv-x="1037" vert-adv-y="2191" d="M144 0v1095h764v-80h-684v-405h641v-80h-641v-450h711v-80h-791z" />
<glyph unicode="F" horiz-adv-x="950" vert-adv-y="2191" d="M145 0v1095h709v-80h-629v-411h547v-80h-547v-524h-80z" />
<glyph unicode="G" horiz-adv-x="1210" vert-adv-y="2191" d="M89 551q0 130 38 234t106.5 177.5t163.5 113t210 39.5q90 0 168 -22.5t139 -64t101 -99.5t55 -129h-86q-8 48 -38.5 90.5t-79.5 74.5t-114 51t-143 19q-96 0 -176 -31t-137.5 -92.5t-89.5 -152t-32 -208.5q0 -117 32 -208.5t89.5 -154.5t138 -95.5t177.5 -32.5 q136 0 236 52t169 144v197h-302v80h382v-533h-46l-35 146q-38 -46 -84 -77.5t-97.5 -51t-107.5 -28.5t-114 -9q-117 0 -213.5 41t-165.5 115.5t-106.5 180t-37.5 234.5z" />
<glyph unicode="H" horiz-adv-x="1122" vert-adv-y="2191" d="M143 0v1095h80v-470h675v470h81v-1095h-81v545h-675v-545h-80z" />
<glyph unicode="I" horiz-adv-x="432" vert-adv-y="2191" d="M177 0v1095h80v-1095h-80z" />
<glyph unicode="J" horiz-adv-x="777" vert-adv-y="2191" d="M67 271l80 1q5 -109 53.5 -160.5t141.5 -51.5q48 0 86.5 10.5t65.5 40.5t41 83t14 139v762h80v-753q0 -99 -18 -167.5t-54 -112t-89.5 -63t-125.5 -19.5q-63 0 -114 20.5t-87 58.5t-55 91.5t-19 120.5z" />
<glyph unicode="K" horiz-adv-x="1037" vert-adv-y="2191" d="M142 0v1095h80v-602l621 602h111l-451 -438l486 -657h-107l-437 598l-223 -216v-382h-80z" />
<glyph unicode="L" horiz-adv-x="865" vert-adv-y="2191" d="M146 0v1095h80v-1015h565v-80h-645z" />
<glyph unicode="M" horiz-adv-x="1296" vert-adv-y="2191" d="M131 0v1095h116l399 -995l402 995h114v-1095h-80v964l-394 -964h-84l-393 964v-964h-80z" />
<glyph unicode="N" horiz-adv-x="1122" vert-adv-y="2191" d="M134 0v1095h110l663 -998v998h80v-1095h-105l-668 1000v-1000h-80z" />
<glyph unicode="O" horiz-adv-x="1210" vert-adv-y="2191" d="M89 551q0 129 38.5 233t107.5 177.5t163.5 113.5t207.5 40q112 0 207 -40t163.5 -114t107 -178t38.5 -232q0 -127 -38 -232t-106.5 -180.5t-163 -117t-208.5 -41.5t-209 41.5t-163.5 116.5t-106.5 180t-38 233zM173 551q0 -117 32 -208.5t89.5 -154.5t137 -95.5 t173.5 -32.5t173.5 32.5t137.5 95.5t90 154.5t32 208.5q0 118 -32.5 208t-90 151.5t-136 93t-171.5 31.5q-95 0 -174.5 -32t-137.5 -93.5t-90.5 -151.5t-32.5 -207z" />
<glyph unicode="P" horiz-adv-x="1037" vert-adv-y="2191" d="M143 0v1095h398q80 0 154 -13t130.5 -47.5t90 -93.5t33.5 -150q0 -161 -101.5 -245t-296.5 -84h-328v-462h-80zM223 542h331q84 0 143 16t96.5 47t54.5 76.5t17 105.5q0 73 -25.5 118t-69 69.5t-100.5 32.5t-120 8h-327v-473z" />
<glyph unicode="Q" horiz-adv-x="1210" vert-adv-y="2191" d="M89 551q0 129 38.5 233t107.5 177.5t163.5 113.5t207.5 40q112 0 207 -40t163.5 -114t107 -178t38.5 -232q0 -137 -43 -247t-121 -186l173 -136q-15 -19 -25.5 -32t-21.5 -27l-186 145q-61 -43 -134.5 -65.5t-157.5 -22.5q-114 0 -209 41.5t-163.5 116.5t-106.5 180 t-38 233zM173 551q0 -117 32 -208.5t89.5 -154.5t137 -95.5t173.5 -32.5q64 0 121 15.5t106 44.5l-121 95q17 20 26.5 32.5t22.5 27.5l136 -108q67 63 104.5 159.5t37.5 224.5q0 118 -32.5 208t-90 151.5t-136 93t-171.5 31.5q-95 0 -174.5 -32t-137.5 -93.5t-90.5 -151.5 t-32.5 -207z" />
<glyph unicode="R" horiz-adv-x="1122" vert-adv-y="2191" d="M142 0v1095h493q69 0 133.5 -12.5t115 -44.5t80.5 -88.5t30 -144.5q0 -55 -13.5 -102.5t-41 -85t-70 -64t-99.5 -38.5q31 -24 51 -46t34.5 -47t26 -55t26.5 -69l113 -298h-88l-109 291q-16 42 -35.5 79t-45.5 64.5t-59.5 43.5t-78.5 16h-383v-494h-80zM222 574h380 q81 0 139 12t95.5 39.5t55.5 71.5t18 108q0 113 -71.5 161.5t-213.5 48.5h-403v-441z" />
<glyph unicode="S" horiz-adv-x="1037" vert-adv-y="2191" d="M90 314h79q12 -74 45 -123t81.5 -78t110.5 -41t132 -12q73 0 131.5 15.5t100 45t63.5 71t22 93.5q0 55 -19 92.5t-64 65.5t-118.5 50t-182.5 45q-90 20 -154.5 46t-106.5 60.5t-62 79t-20 103.5q0 64 27 117t76.5 91t119 59t153.5 21t154 -19.5t122.5 -56.5t85 -90 t41.5 -120h-77q-11 44 -36 82t-64.5 65.5t-94 43t-124.5 15.5q-147 0 -222.5 -54t-75.5 -148q0 -43 14 -75t47.5 -57.5t88.5 -45t137 -36.5q48 -10 99 -21t99.5 -26t92.5 -37t76.5 -54t52 -76.5t19.5 -105.5q0 -70 -29.5 -128.5t-82 -101t-125 -66t-157.5 -23.5 q-111 0 -194 23.5t-139.5 67t-86.5 105t-35 138.5z" />
<glyph unicode="T" horiz-adv-x="950" vert-adv-y="2191" d="M54 1015v80h842v-80h-383v-1015h-80v1015h-379z" />
<glyph unicode="U" horiz-adv-x="1122" vert-adv-y="2191" d="M143 459v636h80v-633q0 -125 22.5 -203.5t66 -122.5t106 -60t143.5 -16q82 0 145.5 16t106 60.5t64.5 122.5t22 203v633h80v-636q0 -113 -19 -202t-66 -150.5t-128 -94t-205 -32.5q-98 0 -167.5 20.5t-115.5 55.5t-73 82t-41 100t-17.5 110t-3.5 111z" />
<glyph unicode="V" horiz-adv-x="1037" vert-adv-y="2191" d="M37 1095h89l392 -995l392 995h88l-429 -1095h-103z" />
<glyph unicode="W" horiz-adv-x="1467" vert-adv-y="2191" d="M37 1095h85l258 -990l290 990h120l300 -990l260 990h85l-285 -1095h-120l-300 990l-290 -990h-120z" />
<glyph unicode="X" horiz-adv-x="1037" vert-adv-y="2191" d="M80 1095h99l349 -481l349 481h99l-399 -548l398 -547h-98l-349 479l-349 -479h-98l398 547z" />
<glyph unicode="Y" horiz-adv-x="1037" vert-adv-y="2191" d="M48 1095h94l378 -541l375 541h93l-428 -625v-470h-80v470z" />
<glyph unicode="Z" horiz-adv-x="950" vert-adv-y="2191" d="M48 0v106l739 909h-674v80h756v-107l-740 -908h761v-80h-842z" />
<glyph unicode="[" horiz-adv-x="648" vert-adv-y="2191" d="M173 -173v1268h304v-82h-217v-1104h217v-82h-304z" />
<glyph unicode="\" horiz-adv-x="832" vert-adv-y="2191" d="M96 911l67 40l565 -961l-67 -40z" />
<glyph unicode="]" horiz-adv-x="648" vert-adv-y="2191" d="M173 -91h217v1104h-217v82h304v-1268h-304v82z" />
<glyph unicode="^" horiz-adv-x="789" vert-adv-y="2191" d="M154 859l241 196l240 -196l-49 -58l-191 162l-192 -162z" />
<glyph unicode="_" horiz-adv-x="793" vert-adv-y="2191" d="M-2 -135h799v-63h-799v63z" />
<glyph unicode="`" horiz-adv-x="495" vert-adv-y="2191" d="M135 1036h146l89 -186h-89z" />
<glyph unicode="a" vert-adv-y="2191" d="M90 198q0 133 113.5 207t340.5 74h92q0 51 -6 94t-28 74.5t-65 49.5t-117 18q-109 0 -163.5 -34t-64.5 -103h-79q12 110 86 163.5t220 53.5q81 0 137.5 -20t92 -57.5t51.5 -91t16 -120.5v-506h-80v100q-41 -36 -80 -59.5t-76.5 -37t-74.5 -18.5t-75 -5q-51 0 -95 15.5 t-76 44t-50.5 69t-18.5 89.5zM170 206q0 -69 54 -107.5t148 -38.5q41 0 79.5 12.5t72.5 32.5t62.5 44.5t49.5 47.5v202h-121q-174 0 -259.5 -50t-85.5 -143z" />
<glyph unicode="b" vert-adv-y="2191" d="M135 0v1095h80v-444q31 42 65 69.5t68 44t66 23.5t61 7q72 0 128 -28.5t94 -81t58 -126.5t20 -164q0 -95 -24 -171.5t-65.5 -130.5t-98 -83.5t-121.5 -29.5q-57 0 -124 22.5t-127 78.5v-81h-80zM215 185q54 -57 112.5 -91t129.5 -34q108 0 173 85t65 250q0 158 -61 239 t-170 81q-72 0 -132.5 -43t-116.5 -121v-366z" />
<glyph unicode="c" horiz-adv-x="764" vert-adv-y="2191" d="M84 388q0 96 24.5 172t70 128t109 79.5t141.5 27.5q56 0 104.5 -15t86 -44t63 -72t35.5 -98h-78q-5 36 -22.5 64t-45.5 47t-64.5 28.5t-78.5 9.5q-59 0 -108 -20.5t-84 -61.5t-54 -102.5t-19 -142.5q0 -82 19 -143.5t54 -102.5t84 -61.5t108 -20.5q39 0 75 9.5t64.5 28 t47.5 46t24 64.5h78q-11 -56 -36.5 -98.5t-63 -71.5t-86 -43.5t-103.5 -14.5q-77 0 -140.5 27t-109 79t-70.5 128t-25 174z" />
<glyph unicode="d" vert-adv-y="2191" d="M80 382q0 96 23.5 172.5t65 130t98 82t121.5 28.5q28 0 57 -3t60 -12.5t64.5 -28.5t69.5 -51v395h80v-1095h-80v107q-36 -42 -70.5 -67t-67 -38.5t-63 -17.5t-58.5 -4q-73 0 -129 29t-94 81.5t-57.5 126.5t-19.5 165zM160 382q0 -158 61 -240t170 -82q72 0 132 39.5 t116 117.5v386q-54 56 -112.5 84t-129.5 28q-54 0 -97.5 -20.5t-74.5 -62t-48 -104t-17 -146.5z" />
<glyph unicode="e" vert-adv-y="2191" d="M80 389q0 94 25 169.5t71 128t109 80.5t140 28q79 0 143 -28t109 -80.5t69 -128t24 -170.5v-18h-610q6 -79 29 -137t60 -96.5t85.5 -57.5t105.5 -19q40 0 80 9.5t72.5 28.5t54.5 47t26 64h79q-11 -55 -39 -97.5t-69 -72t-93 -44.5t-111 -15q-81 0 -147 27.5t-113.5 80 t-73.5 128.5t-26 173zM160 450h529q-20 133 -90.5 199t-173.5 66q-51 0 -95 -16t-78.5 -49t-58 -83t-33.5 -117z" />
<glyph unicode="f" horiz-adv-x="425" vert-adv-y="2191" d="M41 695v80h120v90q0 240 191 240q20 0 39.5 -1t33.5 -3v-77q-8 1 -14 1h-11q-44 0 -74.5 -8t-49.5 -27t-27 -50t-8 -77v-88h147v-80h-147v-695h-80v695h-120z" />
<glyph unicode="g" vert-adv-y="2191" d="M80 382q0 96 23.5 172.5t65 130t98 82t121.5 28.5q28 0 58 -4t62 -14.5t65 -28.5t66 -46v73h80v-729q0 -93 -20 -158.5t-59.5 -106.5t-99.5 -60t-139 -19q-66 0 -119 14.5t-91 41.5t-59.5 67t-24.5 91h80q5 -69 57 -101.5t154 -32.5q60 0 105 14.5t75 47.5t45.5 87 t15.5 133v49q-39 -46 -73.5 -72.5t-66.5 -40t-61.5 -17t-57.5 -3.5q-73 0 -129 29t-94 81.5t-57.5 126.5t-19.5 165zM160 382q0 -158 61 -240t170 -82q72 0 132 39.5t116 117.5v386q-54 56 -112.5 84t-129.5 28q-54 0 -97.5 -20.5t-74.5 -62t-48 -104t-17 -146.5z" />
<glyph unicode="h" vert-adv-y="2191" d="M131 0v1095h80v-435q38 43 74.5 70t71 41t66 19t59.5 5q239 0 239 -282v-513h-80v506q0 54 -9.5 93.5t-31 65t-56 38t-84.5 12.5q-66 0 -126.5 -39t-122.5 -110v-566h-80z" />
<glyph unicode="i" horiz-adv-x="348" vert-adv-y="2191" d="M137 0v775h80v-775h-80zM138 970v125h80v-125h-80z" />
<glyph unicode="j" horiz-adv-x="348" vert-adv-y="2191" d="M-22 -210q6 -1 12 -1h10q42 0 69 6t42 25t21 55.5t6 96.5v805h80v-810q0 -83 -13 -134.5t-36 -80.5t-56 -39.5t-73 -10.5q-34 0 -62 3v85zM138 970v125h80v-125h-80z" />
<glyph unicode="k" horiz-adv-x="764" vert-adv-y="2191" d="M131 0v1095h80v-681l372 363h104l-294 -286l327 -491h-100l-282 437l-127 -124v-313h-80z" />
<glyph unicode="l" horiz-adv-x="348" vert-adv-y="2191" d="M137 0v1095h80v-1095h-80z" />
<glyph unicode="m" horiz-adv-x="1274" vert-adv-y="2191" d="M126 0v775h80v-115q40 45 75.5 71.5t67 40.5t60 18.5t54.5 4.5q75 0 128 -35t77 -107q30 42 63.5 69.5t68 43.5t69.5 22.5t68 6.5q215 0 215 -282v-513h-80v506q0 111 -34.5 160t-121.5 49q-64 0 -124.5 -39.5t-117.5 -111.5v-564h-80v506q0 55 -7.5 95t-25.5 65 t-47.5 37t-72.5 12q-63 0 -120 -39.5t-115 -111.5v-564h-80z" />
<glyph unicode="n" vert-adv-y="2191" d="M125 0v775h80v-115q39 46 76.5 73t73 41t67.5 17.5t60 3.5q239 0 239 -282v-513h-80v506q0 54 -9.5 93.5t-31 65t-56 38t-84.5 12.5q-66 0 -129.5 -39t-125.5 -110v-566h-80z" />
<glyph unicode="o" vert-adv-y="2191" d="M80 389q0 96 24.5 171.5t69.5 127.5t109 79.5t142 27.5q79 0 143 -27.5t109 -80t69 -128t24 -170.5q0 -97 -24.5 -173t-69.5 -128.5t-109 -80t-142 -27.5t-141.5 27t-108.5 79.5t-70 128.5t-25 174zM160 389q0 -82 19 -143.5t54 -103t83.5 -62t108.5 -20.5 q59 0 107.5 20.5t83.5 62t54.5 103t19.5 143.5q0 81 -19.5 142.5t-54.5 102t-83.5 61t-107.5 20.5q-60 0 -108.5 -20.5t-83.5 -61t-54 -102t-19 -142.5z" />
<glyph unicode="p" vert-adv-y="2191" d="M125 -285v1060h80v-115q38 46 73.5 73t68.5 41t63.5 18t59.5 4q72 0 128 -29t94 -81.5t58 -126.5t20 -164q0 -95 -23.5 -171.5t-65 -130.5t-98 -83.5t-122.5 -29.5q-28 0 -58 2.5t-62 12.5t-66 29.5t-70 52.5v-362h-80zM205 174q108 -114 248 -114q54 0 97.5 21.5 t74.5 63.5t48 104.5t17 145.5q0 158 -60.5 239t-170.5 81q-144 0 -254 -155v-386z" />
<glyph unicode="q" vert-adv-y="2191" d="M80 382q0 96 23.5 172.5t65 130t98 82t121.5 28.5q28 0 58 -2.5t62 -12.5t66.5 -28.5t70.5 -50.5v74h80v-1060h-80v392q-35 -43 -70.5 -68t-69.5 -38t-65.5 -17t-59.5 -4q-73 0 -129 29t-94 81.5t-57.5 126.5t-19.5 165zM160 382q0 -158 61 -240t170 -82q142 0 254 157 v386q-109 112 -248 112q-54 0 -97.5 -20.5t-74.5 -62t-48 -104t-17 -146.5z" />
<glyph unicode="r" horiz-adv-x="509" vert-adv-y="2191" d="M128 0v775h80v-107q34 40 67.5 65t65 39t60.5 18.5t53 4.5q8 0 15 -0.5t16 -1.5v-80q-11 2 -24 2h-29q-34 0 -66 -14t-61 -36.5t-54 -51t-43 -58.5v-555h-80z" />
<glyph unicode="s" horiz-adv-x="764" vert-adv-y="2191" d="M75 209h81q9 -70 64.5 -109.5t164.5 -39.5q53 0 93 11.5t66.5 31t39.5 46.5t13 58t-10.5 53t-38 40t-75 34.5t-121.5 35.5q-63 16 -112 33t-82.5 42t-50.5 60.5t-17 88.5q0 46 19.5 83.5t54.5 63.5t85 40t111 14q138 0 209.5 -46.5t79.5 -146.5h-81q-8 58 -55.5 85.5 t-141.5 27.5q-44 0 -81 -8t-63.5 -23.5t-41.5 -39t-15 -53.5q0 -17 6 -35t30.5 -37t73.5 -38.5t134 -40.5q67 -17 116.5 -35.5t82 -44t48.5 -59.5t16 -80q0 -51 -20.5 -95.5t-58 -76.5t-91.5 -50.5t-121 -18.5q-285 0 -311 229z" />
<glyph unicode="t" horiz-adv-x="425" vert-adv-y="2191" d="M56 695v80h99v203h80v-203h127v-80h-127v-481q0 -48 7 -76.5t21 -44t34.5 -20t46.5 -4.5h19t18 1v-77q-17 -2 -34 -3t-34 -1q-52 0 -83.5 14.5t-48 43.5t-21.5 72.5t-5 101.5v474h-99z" />
<glyph unicode="u" vert-adv-y="2191" d="M128 263v512h80v-505q0 -109 40.5 -159.5t140.5 -50.5q72 0 135.5 40t120.5 114v561h80v-775h-80v104q-29 -35 -65.5 -58.5t-74 -38t-74 -21t-65.5 -6.5q-238 0 -238 283z" />
<glyph unicode="v" horiz-adv-x="764" vert-adv-y="2191" d="M52 775h81l249 -665l250 665h80l-294 -775h-72z" />
<glyph unicode="w" horiz-adv-x="1103" vert-adv-y="2191" d="M35 775h90l185 -655l191 655h100l199 -655l179 655h89l-218 -775h-100l-199 650l-191 -650h-100z" />
<glyph unicode="x" horiz-adv-x="764" vert-adv-y="2191" d="M77 0l273 388l-273 387h98l224 -318l224 318h98l-273 -387l273 -388h-97l-225 318l-225 -318h-97z" />
<glyph unicode="y" horiz-adv-x="764" vert-adv-y="2191" d="M52 775h88l253 -676l232 676h87l-282 -789q-26 -70 -52.5 -123t-57.5 -89t-68.5 -54t-83.5 -18q-16 0 -31 1t-30 3v86q8 -1 17 -1h19q69 0 118 47.5t86 154.5z" />
<glyph unicode="z" horiz-adv-x="764" vert-adv-y="2191" d="M58 0v95l528 600h-499v80h592v-95l-537 -600h562v-80h-646z" />
<glyph unicode="{" horiz-adv-x="543" vert-adv-y="2191" d="M67 410v103q91 0 135.5 66t44.5 195q0 193 21 244q32 77 150 77h58v-78h-40q-40 0 -64.5 -11t-38 -35.5t-18 -63t-4.5 -92.5q0 -78 -4 -132t-13 -84q-24 -85 -110 -138q91 -54 115 -155q6 -27 8.5 -86t3.5 -151q0 -44 4 -74.5t16 -50.5t32.5 -29t53.5 -9h59v-77h-58 q-119 0 -150 75q-11 26 -16 87.5t-5 158.5q0 129 -44.5 194.5t-135.5 65.5z" />
<glyph unicode="|" horiz-adv-x="489" vert-adv-y="2191" d="M206 -53v1148h77v-1148h-77z" />
<glyph unicode="}" horiz-adv-x="542" vert-adv-y="2191" d="M74 -94h59q33 0 53.5 9t32.5 29t16 50.5t4 74.5q0 183 12 237q22 100 115 155q-86 52 -111 138q-16 58 -16 216q0 54 -4.5 92.5t-18 63t-38.5 35.5t-65 11h-39v78h58q117 0 150 -77q20 -49 20 -244q0 -129 45 -195t136 -66v-103q-91 0 -136 -65.5t-45 -194.5 q0 -97 -4.5 -158.5t-15.5 -87.5q-33 -75 -150 -75h-58v77z" />
<glyph unicode="~" horiz-adv-x="1135" vert-adv-y="2191" d="M118 306v68q0 155 56 236t184 81q46 0 79.5 -12t60 -33t49 -49t46.5 -59q19 -24 39 -49.5t41.5 -45.5t46 -33t53.5 -13q46 0 75 18.5t45.5 50t22 71.5t5.5 84v67h94v-51q0 -79 -13.5 -141t-42 -105t-74 -65.5t-108.5 -22.5q-46 0 -79 10.5t-59 30t-49.5 48.5t-50.5 65 q-18 26 -37.5 51t-42 45t-48.5 32t-57 12q-78 0 -110 -50.5t-32 -150.5v-90h-94z" />
<glyph unicode="&#xa0;" horiz-adv-x="900" vert-adv-y="2191" />
<glyph unicode="&#xa1;" horiz-adv-x="646" vert-adv-y="2191" d="M250 -98l40 584h66l40 -584v-222h-146v222zM250 629v146h146v-146h-146z" />
<glyph unicode="&#xa2;" horiz-adv-x="919" vert-adv-y="2191" d="M160 427q0 106 27 189t76.5 140t119 87t155.5 30q34 0 66 -6l54 196l71 -22l-53 -193q69 -28 116 -84.5t63 -141.5h-86q-7 52 -37 90t-78 58l-194 -701q37 -9 78 -9q43 0 82.5 11.5t70.5 33t51.5 53t26.5 72.5h86q-12 -61 -40 -108t-69.5 -78.5t-94 -47.5t-113.5 -16 q-50 0 -99 11l-51 -184l-70 23l51 186q-97 48 -153 151.5t-56 259.5zM241 427q0 -124 40.5 -206.5t110.5 -123.5l191 693q-23 3 -45 3q-65 0 -119.5 -23.5t-94 -70t-61.5 -115t-22 -157.5z" />
<glyph unicode="&#xa3;" horiz-adv-x="829" vert-adv-y="2191" d="M102 -8v103q74 44 115 116.5t41 185.5q0 23 -3.5 49t-11.5 56h-141v81h118q-20 73 -31 130t-11 92q0 69 24 124t66.5 94t101 59.5t128.5 20.5q64 0 117.5 -17t94 -49.5t66 -80.5t32.5 -110l-89 1q-11 87 -71.5 131t-152.5 44q-47 0 -89 -17t-73.5 -45.5t-50 -65.5 t-18.5 -78q0 -44 11 -104.5t34 -128.5h233v-81h-219q5 -12 9 -27t6.5 -30t4 -28t1.5 -20q0 -46 -5 -82t-17.5 -68.5t-33.5 -64.5t-52 -69q27 10 60.5 14t60.5 4q22 0 64 -10.5t89 -22.5t91 -22.5t69 -10.5q38 0 74 8.5t72 24.5v-89q-34 -14 -69.5 -21.5t-71.5 -7.5 q-23 0 -68 10.5t-95 23.5t-95.5 23.5t-69.5 10.5q-113 0 -245 -56z" />
<glyph unicode="&#xa4;" horiz-adv-x="813" vert-adv-y="2191" d="M54 252l99 99q-50 79 -50 166t50 166q2 0 -99 101l84 83q100 -97 100 -99q73 52 168 52q94 0 170 -52l99 99l83 -83l-98 -101q49 -77 49 -166q0 -90 -51 -166l100 -99l-83 -84l-99 99q-77 -52 -170 -52q-94 0 -168 53l-100 -100zM189 517q0 -44 17.5 -83.5t47 -69 t69 -46.5t83.5 -17t83.5 17t69 46.5t47 69t17.5 83.5q0 45 -17.5 84.5t-47 69t-69 46.5t-83.5 17t-83.5 -17t-69 -46.5t-47 -69t-17.5 -84.5z" />
<glyph unicode="&#xa5;" horiz-adv-x="1037" vert-adv-y="2191" d="M48 1095h94l378 -541l375 541h93l-410 -598h248v-87h-266v-122h266v-87h-266v-201h-80v201h-255v87h255v122h-255v87h236z" />
<glyph unicode="&#xa6;" horiz-adv-x="255" vert-adv-y="2191" d="M90 240h75v-547h-75v547zM90 500v546h75v-546h-75z" />
<glyph unicode="&#xa7;" horiz-adv-x="813" vert-adv-y="2191" d="M84 510q0 66 41.5 116t124.5 88q-98 87 -98 182q0 42 17 81.5t48.5 70t77 49t102.5 18.5q59 0 107 -16.5t83 -47t57.5 -73t30.5 -94.5h-96q-18 143 -175 143q-78 0 -119.5 -34.5t-41.5 -90.5q0 -26 10 -48t38.5 -47.5t80 -59.5t134.5 -84q55 -33 98 -61.5t73 -60 t45.5 -69.5t15.5 -90q0 -129 -169 -209q119 -74 119 -202q0 -49 -20 -90.5t-55 -72t-84 -47.5t-106 -17q-120 0 -197 60t-95 180h96q11 -72 59.5 -111.5t136.5 -39.5q42 0 74 11t54 29.5t33.5 43.5t11.5 53q0 26 -12.5 48.5t-44 49.5t-86.5 62.5t-140 86.5q-58 35 -101 65 t-71.5 62.5t-42.5 72t-14 93.5zM170 526q0 -28 7.5 -51t29 -47t59.5 -52t99 -65q56 -35 90.5 -53t55.5 -34l24 -1q56 29 86.5 59t30.5 74q0 26 -9.5 50t-32.5 49t-60.5 52.5t-92.5 60.5q-49 29 -86 52t-70 49q-62 -31 -96.5 -63.5t-34.5 -79.5z" />
<glyph unicode="&#xa8;" horiz-adv-x="489" vert-adv-y="2191" d="M71 850v111h108v-111h-108zM302 850v111h106v-111h-106z" />
<glyph unicode="&#xa9;" horiz-adv-x="995" vert-adv-y="2191" d="M0 487q0 103 39.5 193.5t108 158t159 107t192.5 39.5q101 0 191 -39.5t158 -107.5t107.5 -158.5t39.5 -192.5t-39 -192.5t-106.5 -159t-158 -108t-192.5 -39.5t-192.5 39t-159 107t-108 158.5t-39.5 194.5zM82 487q0 -86 33 -162t89.5 -132.5t132 -89.5t161.5 -33 q84 0 159.5 33t132.5 89.5t90 132.5t33 162q0 84 -33 159.5t-89 132t-132 90t-161 33.5q-86 0 -161.5 -33t-132 -89.5t-89.5 -132t-33 -160.5zM238 485q0 65 18.5 117t53 88t84 55.5t110.5 19.5q45 0 83 -11.5t68 -33t49.5 -52.5t26.5 -70h-93q-20 95 -136 95 q-83 0 -128 -56.5t-45 -153.5q0 -45 12 -83t34.5 -65t53.5 -42t70 -15q121 0 145 104h92q-45 -182 -236 -182q-59 0 -107.5 20.5t-83 57.5t-53 89.5t-18.5 117.5z" />
<glyph unicode="&#xaa;" horiz-adv-x="541" vert-adv-y="2191" d="M42 680q0 172 299 172h60q0 48 -10 75t-27 41t-41.5 17.5t-52.5 3.5q-123 0 -130 -72h-79q20 144 213 144q100 0 153 -42t53 -144v-325h-79v69q-89 -80 -194 -80q-36 0 -66 10t-52 28.5t-34.5 44.5t-12.5 58zM70 374v70h402v-70h-402zM121 683q0 -37 29.5 -55t83.5 -18 q20 0 44.5 6.5t47.5 17.5t43 26t32 32v96h-77q-99 0 -151 -26t-52 -79z" />
<glyph unicode="&#xab;" horiz-adv-x="813" vert-adv-y="2191" d="M101 377l227 326h105l-186 -326l186 -326h-105zM380 377l226 326h105l-185 -326l185 -326h-105z" />
<glyph unicode="&#xac;" horiz-adv-x="920" vert-adv-y="2191" d="M140 381v98h657v-293h-97v195h-560z" />
<glyph unicode="&#xad;" horiz-adv-x="915" vert-adv-y="2191" d="M157 413v87h601v-87h-601z" />
<glyph unicode="&#xae;" horiz-adv-x="995" vert-adv-y="2191" d="M0 487q0 103 39.5 193.5t108 158t159 107t192.5 39.5q101 0 191 -39.5t158 -107.5t107.5 -158.5t39.5 -192.5t-39 -192.5t-106.5 -159t-158 -108t-192.5 -39.5t-192.5 39t-159 107t-108 158.5t-39.5 194.5zM82 487q0 -86 33 -162t89.5 -132.5t132 -89.5t161.5 -33 q84 0 159.5 33t132.5 89.5t90 132.5t33 162q0 84 -33 159.5t-89 132t-132 90t-161 33.5q-86 0 -161.5 -33t-132 -89.5t-89.5 -132t-33 -160.5zM286 211v535h201q212 0 212 -148q0 -142 -139 -152q72 -21 106 -102l55 -133h-98l-42 117q-19 53 -53.5 79t-88.5 26h-68v-222 h-85zM371 507h108q128 0 128 84q0 82 -131 82h-105v-166z" />
<glyph unicode="&#xaf;" horiz-adv-x="731" vert-adv-y="2191" d="M-8 1156v72h747v-72h-747z" />
<glyph unicode="&#xb0;" horiz-adv-x="585" vert-adv-y="2191" d="M95 862q0 40 15.5 76t42.5 63t63 43t76 16q41 0 77 -16t62.5 -43.5t42 -63.5t15.5 -75q0 -41 -15.5 -77t-42.5 -63t-63 -43t-76 -16t-76 15.5t-63 42.5t-42.5 63.5t-15.5 77.5zM163 862q0 -26 10 -50t27.5 -42t41 -28.5t50.5 -10.5t51 10.5t42 28.5t28 42t10 50 q0 27 -10.5 50.5t-28.5 41t-41.5 28t-50.5 10.5t-50.5 -10t-41 -27.5t-27.5 -41t-10 -51.5z" />
<glyph unicode="&#xb1;" horiz-adv-x="854" vert-adv-y="2191" d="M120 0v87h601v-87h-601zM120 499v87h259v257h87v-257h255v-87h-255v-259h-87v259h-259z" />
<glyph unicode="&#xb2;" horiz-adv-x="487" vert-adv-y="2191" d="M30 530q11 53 58 104t122 99q46 28 75 49.5t46 40.5t23.5 37t6.5 39q0 90 -109 90q-48 0 -77.5 -19t-40.5 -53h-88q33 138 207 138q47 0 84.5 -11t63.5 -31t40 -47.5t14 -60.5q0 -30 -7.5 -54t-24.5 -45.5t-45 -43.5t-70 -47q-82 -50 -146 -117h296v-68h-428z" />
<glyph unicode="&#xb3;" horiz-adv-x="487" vert-adv-y="2191" d="M35 652h93q8 -34 36.5 -52.5t78.5 -18.5q121 0 121 108q0 84 -123 84h-31v60q63 2 96.5 23t33.5 63q0 71 -98 71q-84 0 -102 -60h-91q34 125 194 125q90 0 139 -36t49 -89q0 -45 -22.5 -76t-68.5 -44q68 -20 92 -53.5t24 -82.5q0 -33 -14.5 -61.5t-41.5 -50t-65.5 -33.5 t-86.5 -12q-186 0 -213 135z" />
<glyph unicode="&#xb4;" horiz-adv-x="495" vert-adv-y="2191" d="M125 850l89 186h146l-146 -186h-89z" />
<glyph unicode="&#xb5;" horiz-adv-x="752" vert-adv-y="2191" d="M112 -269v1049h104v-566q0 -137 139 -137q27 0 48.5 6.5t42 21t42 37.5t48.5 57v581h104v-623q0 -44 21.5 -61t65.5 -17v-86h-65q-57 0 -86 24t-40 72q-93 -106 -207 -106q-60 0 -113 32v-284h-104z" />
<glyph unicode="&#xb6;" horiz-adv-x="726" vert-adv-y="2191" d="M-1 689q0 67 22 119t62.5 87.5t98 54t129.5 18.5h377v-97h-93v-1140h-91v1140h-148v-1140h-91v690q-65 3 -115 25t-83.5 58t-50.5 83.5t-17 101.5z" />
<glyph unicode="&#xb7;" horiz-adv-x="585" vert-adv-y="2191" d="M95 572q0 40 15.5 76t42.5 63t62.5 43t76.5 16q40 0 76 -16t63 -43t42.5 -63t15.5 -76q0 -41 -16 -77t-43.5 -63t-63 -43t-74.5 -16q-41 0 -76.5 16t-62.5 43t-42.5 63t-15.5 77z" />
<glyph unicode="&#xb8;" horiz-adv-x="487" vert-adv-y="2191" d="M95 -212q20 -2 39.5 -3.5t38.5 -1.5q46 0 71.5 13.5t25.5 50.5q0 27 -28 41.5t-78 14.5v97h80v-49q61 -8 83.5 -35t22.5 -69q0 -29 -8 -53.5t-28.5 -43t-56 -29t-89.5 -10.5q-33 0 -73 3v74z" />
<glyph unicode="&#xb9;" horiz-adv-x="487" vert-adv-y="2191" d="M87 850v70q90 2 138 35.5t51 99.5h58v-525h-86v364q-31 -21 -70 -32t-91 -12z" />
<glyph unicode="&#xba;" horiz-adv-x="534" vert-adv-y="2191" d="M43 798q0 61 17 109.5t47 82.5t72 52t93 18q50 0 92 -18.5t72 -52.5t47 -82.5t17 -108.5q0 -62 -17 -111t-47 -82.5t-72 -51.5t-92 -18q-52 0 -94 17.5t-72 51.5t-46.5 82.5t-16.5 111.5zM68 375v65h408v-65h-408zM131 798q0 -187 141 -187t141 187q0 185 -141 185 t-141 -185z" />
<glyph unicode="&#xbb;" horiz-adv-x="813" vert-adv-y="2191" d="M101 51l186 326l-186 326h105l227 -326l-227 -326h-105zM380 51l186 326l-186 326h106l225 -326l-225 -326h-106z" />
<glyph unicode="&#xbc;" horiz-adv-x="1128" vert-adv-y="2191" d="M83 775v82q173 0 173 123h52v-496h-77v324q-45 -33 -148 -33zM154 0l688 968h84l-687 -968h-85zM650 122v60l267 313h61v-308h89v-65h-89v-122h-75v122h-253zM744 187h159v188z" />
<glyph unicode="&#xbd;" horiz-adv-x="1128" vert-adv-y="2191" d="M83 775v82q173 0 173 123h52v-496h-77v324q-45 -33 -148 -33zM154 0l688 968h84l-687 -968h-85zM689 0q7 55 44 105.5t115 97.5q46 27 73 46t41 34t18.5 29t4.5 32q0 37 -24 59t-69 22q-43 0 -75 -20t-40 -53h-85q27 145 201 145q91 0 131.5 -41t40.5 -105 q0 -29 -5 -51.5t-18.5 -43.5t-38.5 -42t-65 -46q-38 -23 -72 -50t-54 -48h255v-70h-378z" />
<glyph unicode="&#xbe;" horiz-adv-x="1128" vert-adv-y="2191" d="M49 613h79q3 -32 32.5 -53t74.5 -21q51 0 83.5 26.5t32.5 71.5q0 35 -28 51.5t-80 16.5h-37v73q60 0 91.5 17t31.5 52q0 28 -27.5 44.5t-67.5 16.5q-38 0 -64.5 -16.5t-31.5 -43.5h-78q14 66 53.5 99t121.5 33q86 0 130.5 -35t44.5 -88q0 -45 -19.5 -73.5t-64.5 -39.5 q57 -11 82.5 -41t25.5 -79q0 -32 -13 -59.5t-38 -48t-61 -32.5t-82 -12q-93 0 -137 35t-54 106zM154 0l688 968h84l-687 -968h-85zM650 122v60l267 313h61v-308h89v-65h-89v-122h-75v122h-253zM744 187h159v188z" />
<glyph unicode="&#xbf;" horiz-adv-x="1167" vert-adv-y="2191" d="M288 -72q0 50 12 89t33.5 71t50.5 59t63 54q28 22 52.5 45t43.5 49.5t30 57.5t11 69v93h80v-82q0 -60 -13.5 -103t-37.5 -77.5t-57.5 -63.5t-73.5 -61q-24 -19 -44.5 -40t-36 -45.5t-24.5 -53t-9 -61.5q0 -37 17.5 -71t45 -60.5t63 -42t71.5 -15.5q50 0 92 18t73 49.5 t49.5 74t21.5 92.5h79q-4 -67 -28 -124.5t-65 -99.5t-97.5 -66t-124.5 -24q-58 0 -108.5 20t-88 56t-59 85t-21.5 108zM551 628v146h146v-146h-146z" />
<glyph unicode="&#xc0;" horiz-adv-x="1037" vert-adv-y="2191" d="M27 0q54 142 106.5 278t104.5 270.5t104.5 270.5t106.5 277h113l447 -1096h-96l-134 352h-539q-29 -83 -63 -175.5t-65 -176.5h-85zM261 415h495l-254 609zM401 1416h146l89 -186h-89z" />
<glyph unicode="&#xc1;" horiz-adv-x="1037" vert-adv-y="2191" d="M27 0q54 142 106.5 278t104.5 270.5t104.5 270.5t106.5 277h113l447 -1096h-96l-134 352h-539q-29 -83 -63 -175.5t-65 -176.5h-85zM261 415h495l-254 609zM401 1230l89 186h146l-146 -186h-89z" />
<glyph unicode="&#xc2;" horiz-adv-x="1037" vert-adv-y="2191" d="M27 0q54 142 106.5 278t104.5 270.5t104.5 270.5t106.5 277h113l447 -1096h-96l-134 352h-539q-29 -83 -63 -175.5t-65 -176.5h-85zM261 415h495l-254 609zM329 1230l146 185h86l146 -185h-115l-75 111l-74 -111h-114z" />
<glyph unicode="&#xc3;" horiz-adv-x="1037" vert-adv-y="2191" d="M27 0q54 142 106.5 278t104.5 270.5t104.5 270.5t106.5 277h113l447 -1096h-96l-134 352h-539q-29 -83 -63 -175.5t-65 -176.5h-85zM261 415h495l-254 609zM307 1230q0 71 33.5 104t90.5 33q14 0 40 -9t53.5 -19.5t50.5 -19.5t31 -9q21 0 37 20.5t16 52.5h71 q0 -72 -33 -111.5t-91 -39.5q-15 0 -41.5 8.5t-54 19t-50 19t-29.5 8.5q-28 0 -39 -14t-14 -43h-71z" />
<glyph unicode="&#xc4;" horiz-adv-x="1037" vert-adv-y="2191" d="M27 0q54 142 106.5 278t104.5 270.5t104.5 270.5t106.5 277h113l447 -1096h-96l-134 352h-539q-29 -83 -63 -175.5t-65 -176.5h-85zM261 415h495l-254 609zM350 1230v111h108v-111h-108zM581 1230v111h106v-111h-106z" />
<glyph unicode="&#xc5;" horiz-adv-x="1037" vert-adv-y="2191" d="M27 0q54 142 106.5 278t104.5 270.5t104.5 270.5t106.5 277h113l447 -1096h-96l-134 352h-539q-29 -83 -63 -175.5t-65 -176.5h-85zM261 415h495l-254 609zM380 1228q0 26 10.5 49t28 40.5t41 27.5t49.5 10t48.5 -10.5t39.5 -28t27 -40.5t10 -48q0 -27 -10 -50t-27 -40.5 t-39.5 -27.5t-48.5 -10t-49.5 10t-41 27t-28 40.5t-10.5 50.5zM430 1228q0 -32 23 -55.5t56 -23.5q16 0 29.5 6.5t24 17t16.5 25t6 30.5q0 32 -22 55t-54 23q-33 0 -56 -23t-23 -55z" />
<glyph unicode="&#xc6;" horiz-adv-x="1554" vert-adv-y="2191" d="M26 0q83 144 161.5 279t156 268.5t156 269t161.5 278.5h774v-80h-577v-405h532v-80h-532v-450h604v-80h-684v335h-470q-45 -81 -93 -167.5t-93 -167.5h-96zM350 413h428v602h-73z" />
<glyph unicode="&#xc7;" horiz-adv-x="1122" vert-adv-y="2191" d="M91 551q0 130 35 234t100.5 177.5t158 113t207.5 39.5q79 0 150.5 -23t128.5 -64.5t96 -99t54 -126.5h-83q-11 49 -41 91.5t-75 74t-103.5 49.5t-125.5 18q-95 0 -172.5 -31t-132 -91.5t-84 -151t-29.5 -210.5t29.5 -211.5t84 -153.5t131 -94t170.5 -32q142 0 234 63.5 t114 185.5h83q-12 -78 -49 -139.5t-93 -103.5t-129 -64t-158 -22q-116 0 -208.5 40.5t-157.5 114.5t-100 179.5t-35 236.5zM475 -233q20 -2 39.5 -3.5t38.5 -1.5q46 0 71.5 13.5t25.5 50.5q0 27 -28 41.5t-78 14.5v97h80v-49q61 -8 83.5 -35t22.5 -69q0 -29 -8 -53.5 t-28.5 -43t-56 -29t-89.5 -10.5q-33 0 -73 3v74z" />
<glyph unicode="&#xc8;" horiz-adv-x="1037" vert-adv-y="2191" d="M144 0v1095h764v-80h-684v-405h641v-80h-641v-450h711v-80h-791zM401 1416h146l89 -186h-89z" />
<glyph unicode="&#xc9;" horiz-adv-x="1037" vert-adv-y="2191" d="M144 0v1095h764v-80h-684v-405h641v-80h-641v-450h711v-80h-791zM401 1230l89 186h146l-146 -186h-89z" />
<glyph unicode="&#xca;" horiz-adv-x="1037" vert-adv-y="2191" d="M144 0v1095h764v-80h-684v-405h641v-80h-641v-450h711v-80h-791zM329 1230l146 185h86l146 -185h-115l-75 111l-74 -111h-114z" />
<glyph unicode="&#xcb;" horiz-adv-x="1037" vert-adv-y="2191" d="M144 0v1095h764v-80h-684v-405h641v-80h-641v-450h711v-80h-791zM350 1230v111h108v-111h-108zM581 1230v111h106v-111h-106z" />
<glyph unicode="&#xcc;" horiz-adv-x="432" vert-adv-y="2191" d="M100 1416h146l89 -186h-89zM177 0v1095h80v-1095h-80z" />
<glyph unicode="&#xcd;" horiz-adv-x="432" vert-adv-y="2191" d="M100 1230l89 186h146l-146 -186h-89zM177 0v1095h80v-1095h-80z" />
<glyph unicode="&#xce;" horiz-adv-x="432" vert-adv-y="2191" d="M28 1230l146 185h86l146 -185h-115l-75 111l-74 -111h-114zM177 0v1095h80v-1095h-80z" />
<glyph unicode="&#xcf;" horiz-adv-x="432" vert-adv-y="2191" d="M49 1230v111h108v-111h-108zM177 0v1095h80v-1095h-80zM280 1230v111h106v-111h-106z" />
<glyph unicode="&#xd0;" horiz-adv-x="1122" vert-adv-y="2191" d="M13 529v80h129v485h331q277 0 415 -133.5t138 -404.5q0 -556 -553 -556h-331v529h-129zM222 80h249q137 0 227.5 32t144.5 93.5t76 149.5t22 201q0 108 -21.5 193t-75.5 144.5t-144.5 90.5t-228.5 31h-249v-406h358v-80h-358v-449z" />
<glyph unicode="&#xd1;" horiz-adv-x="1122" vert-adv-y="2191" d="M134 0v1095h110l663 -998v998h80v-1095h-105l-668 1000v-1000h-80zM349 1230q0 71 33.5 104t90.5 33q14 0 40 -9t53.5 -19.5t50.5 -19.5t31 -9q21 0 37 20.5t16 52.5h71q0 -72 -33 -111.5t-91 -39.5q-15 0 -41.5 8.5t-54 19t-50 19t-29.5 8.5q-28 0 -39 -14t-14 -43h-71z " />
<glyph unicode="&#xd2;" horiz-adv-x="1210" vert-adv-y="2191" d="M89 551q0 129 38.5 233t107.5 177.5t163.5 113.5t207.5 40q112 0 207 -40t163.5 -114t107 -178t38.5 -232q0 -127 -38 -232t-106.5 -180.5t-163 -117t-208.5 -41.5t-209 41.5t-163.5 116.5t-106.5 180t-38 233zM173 551q0 -117 32 -208.5t89.5 -154.5t137 -95.5 t173.5 -32.5t173.5 32.5t137.5 95.5t90 154.5t32 208.5q0 118 -32.5 208t-90 151.5t-136 93t-171.5 31.5q-95 0 -174.5 -32t-137.5 -93.5t-90.5 -151.5t-32.5 -207zM487 1416h146l89 -186h-89z" />
<glyph unicode="&#xd3;" horiz-adv-x="1210" vert-adv-y="2191" d="M89 551q0 129 38.5 233t107.5 177.5t163.5 113.5t207.5 40q112 0 207 -40t163.5 -114t107 -178t38.5 -232q0 -127 -38 -232t-106.5 -180.5t-163 -117t-208.5 -41.5t-209 41.5t-163.5 116.5t-106.5 180t-38 233zM173 551q0 -117 32 -208.5t89.5 -154.5t137 -95.5 t173.5 -32.5t173.5 32.5t137.5 95.5t90 154.5t32 208.5q0 118 -32.5 208t-90 151.5t-136 93t-171.5 31.5q-95 0 -174.5 -32t-137.5 -93.5t-90.5 -151.5t-32.5 -207zM487 1230l89 186h146l-146 -186h-89z" />
<glyph unicode="&#xd4;" horiz-adv-x="1210" vert-adv-y="2191" d="M89 551q0 129 38.5 233t107.5 177.5t163.5 113.5t207.5 40q112 0 207 -40t163.5 -114t107 -178t38.5 -232q0 -127 -38 -232t-106.5 -180.5t-163 -117t-208.5 -41.5t-209 41.5t-163.5 116.5t-106.5 180t-38 233zM173 551q0 -117 32 -208.5t89.5 -154.5t137 -95.5 t173.5 -32.5t173.5 32.5t137.5 95.5t90 154.5t32 208.5q0 118 -32.5 208t-90 151.5t-136 93t-171.5 31.5q-95 0 -174.5 -32t-137.5 -93.5t-90.5 -151.5t-32.5 -207zM416 1230l146 185h86l146 -185h-115l-75 111l-74 -111h-114z" />
<glyph unicode="&#xd5;" horiz-adv-x="1210" vert-adv-y="2191" d="M89 551q0 129 38.5 233t107.5 177.5t163.5 113.5t207.5 40q112 0 207 -40t163.5 -114t107 -178t38.5 -232q0 -127 -38 -232t-106.5 -180.5t-163 -117t-208.5 -41.5t-209 41.5t-163.5 116.5t-106.5 180t-38 233zM173 551q0 -117 32 -208.5t89.5 -154.5t137 -95.5 t173.5 -32.5t173.5 32.5t137.5 95.5t90 154.5t32 208.5q0 118 -32.5 208t-90 151.5t-136 93t-171.5 31.5q-95 0 -174.5 -32t-137.5 -93.5t-90.5 -151.5t-32.5 -207zM393 1230q0 71 33.5 104t90.5 33q14 0 40 -9t53.5 -19.5t50.5 -19.5t31 -9q21 0 37 20.5t16 52.5h71 q0 -72 -33 -111.5t-91 -39.5q-15 0 -41.5 8.5t-54 19t-50 19t-29.5 8.5q-28 0 -39 -14t-14 -43h-71z" />
<glyph unicode="&#xd6;" horiz-adv-x="1210" vert-adv-y="2191" d="M89 551q0 129 38.5 233t107.5 177.5t163.5 113.5t207.5 40q112 0 207 -40t163.5 -114t107 -178t38.5 -232q0 -127 -38 -232t-106.5 -180.5t-163 -117t-208.5 -41.5t-209 41.5t-163.5 116.5t-106.5 180t-38 233zM173 551q0 -117 32 -208.5t89.5 -154.5t137 -95.5 t173.5 -32.5t173.5 32.5t137.5 95.5t90 154.5t32 208.5q0 118 -32.5 208t-90 151.5t-136 93t-171.5 31.5q-95 0 -174.5 -32t-137.5 -93.5t-90.5 -151.5t-32.5 -207zM436 1230v111h108v-111h-108zM667 1230v111h106v-111h-106z" />
<glyph unicode="&#xd7;" horiz-adv-x="790" vert-adv-y="2191" d="M142 271l183 183l-183 183l62 62l183 -183l182 182l61 -62l-182 -182l181 -180l-62 -62l-180 181l-183 -183z" />
<glyph unicode="&#xd8;" horiz-adv-x="1210" vert-adv-y="2191" d="M89 551q0 129 38.5 233t107.5 177.5t163.5 113.5t207.5 40q81 0 152.5 -21t131.5 -61l74 103l67 -42l-79 -110q80 -75 125 -184t45 -249q0 -127 -38 -232t-106.5 -180.5t-163 -117t-208.5 -41.5q-88 0 -163.5 24.5t-138.5 70.5l-87 -122l-67 43l94 131q-74 76 -114.5 183 t-40.5 241zM173 551q0 -116 30.5 -205.5t86.5 -152.5l555 776q-51 32 -110.5 49t-126.5 17q-95 0 -174.5 -32t-137.5 -93.5t-90.5 -151.5t-32.5 -207zM349 139q53 -39 117.5 -59t138.5 -20q94 0 173.5 32.5t137.5 95.5t90 154.5t32 208.5q0 123 -35 215t-97 154z" />
<glyph unicode="&#xd9;" horiz-adv-x="1122" vert-adv-y="2191" d="M143 459v636h80v-633q0 -125 22.5 -203.5t66 -122.5t106 -60t143.5 -16q82 0 145.5 16t106 60.5t64.5 122.5t22 203v633h80v-636q0 -113 -19 -202t-66 -150.5t-128 -94t-205 -32.5q-98 0 -167.5 20.5t-115.5 55.5t-73 82t-41 100t-17.5 110t-3.5 111zM443 1416h146 l89 -186h-89z" />
<glyph unicode="&#xda;" horiz-adv-x="1122" vert-adv-y="2191" d="M143 459v636h80v-633q0 -125 22.5 -203.5t66 -122.5t106 -60t143.5 -16q82 0 145.5 16t106 60.5t64.5 122.5t22 203v633h80v-636q0 -113 -19 -202t-66 -150.5t-128 -94t-205 -32.5q-98 0 -167.5 20.5t-115.5 55.5t-73 82t-41 100t-17.5 110t-3.5 111zM443 1230l89 186 h146l-146 -186h-89z" />
<glyph unicode="&#xdb;" horiz-adv-x="1122" vert-adv-y="2191" d="M143 459v636h80v-633q0 -125 22.5 -203.5t66 -122.5t106 -60t143.5 -16q82 0 145.5 16t106 60.5t64.5 122.5t22 203v633h80v-636q0 -113 -19 -202t-66 -150.5t-128 -94t-205 -32.5q-98 0 -167.5 20.5t-115.5 55.5t-73 82t-41 100t-17.5 110t-3.5 111zM372 1230l146 185 h86l146 -185h-115l-75 111l-74 -111h-114z" />
<glyph unicode="&#xdc;" horiz-adv-x="1122" vert-adv-y="2191" d="M143 459v636h80v-633q0 -125 22.5 -203.5t66 -122.5t106 -60t143.5 -16q82 0 145.5 16t106 60.5t64.5 122.5t22 203v633h80v-636q0 -113 -19 -202t-66 -150.5t-128 -94t-205 -32.5q-98 0 -167.5 20.5t-115.5 55.5t-73 82t-41 100t-17.5 110t-3.5 111zM392 1230v111h108 v-111h-108zM623 1230v111h106v-111h-106z" />
<glyph unicode="&#xdd;" horiz-adv-x="1037" vert-adv-y="2191" d="M48 1095h94l378 -541l375 541h93l-428 -625v-470h-80v470zM401 1230l89 186h146l-146 -186h-89z" />
<glyph unicode="&#xde;" horiz-adv-x="1037" vert-adv-y="2191" d="M143 0v1095h80v-259h318q80 0 154 -13t130.5 -47.5t90 -93.5t33.5 -150q0 -161 -101.5 -245t-296.5 -84h-328v-203h-80zM223 283h331q84 0 143 16t96.5 47t54.5 76.5t17 105.5q0 73 -25.5 118t-69 69.5t-100.5 32.5t-120 8h-327v-473z" />
<glyph unicode="&#xdf;" horiz-adv-x="933" vert-adv-y="2191" d="M115 0v747q0 181 77 272t234 91q60 0 109 -17t83.5 -45.5t53.5 -66.5t19 -80q0 -36 -18 -88.5t-56 -117.5q-40 -68 -40 -104q0 -20 5 -34.5t20.5 -31t45 -37.5t79.5 -54q43 -28 71 -53t44.5 -50t23 -51.5t6.5 -57.5q0 -49 -19 -93t-53.5 -77t-82.5 -52.5t-106 -19.5 q-51 0 -95.5 12t-77.5 35t-53 56t-24 75h90q12 -45 54 -71.5t103 -26.5q35 0 66.5 11.5t55 31.5t37.5 47.5t14 59.5q0 30 -7 50t-23.5 38t-44.5 37t-71 46q-68 43 -110.5 89.5t-42.5 99.5q0 49 54 144q36 63 52.5 106.5t17.5 67.5q0 29 -14.5 54.5t-39 45t-58 31t-70.5 11.5 q-47 0 -88.5 -13.5t-73 -47t-49.5 -89t-18 -139.5v-741h-80z" />
<glyph unicode="&#xe0;" vert-adv-y="2191" d="M90 198q0 133 113.5 207t340.5 74h92q0 51 -6 94t-28 74.5t-65 49.5t-117 18q-109 0 -163.5 -34t-64.5 -103h-79q12 110 86 163.5t220 53.5q81 0 137.5 -20t92 -57.5t51.5 -91t16 -120.5v-506h-80v100q-41 -36 -80 -59.5t-76.5 -37t-74.5 -18.5t-75 -5q-51 0 -95 15.5 t-76 44t-50.5 69t-18.5 89.5zM170 206q0 -69 54 -107.5t148 -38.5q41 0 79.5 12.5t72.5 32.5t62.5 44.5t49.5 47.5v202h-121q-174 0 -259.5 -50t-85.5 -143zM307 1036h146l89 -186h-89z" />
<glyph unicode="&#xe1;" vert-adv-y="2191" d="M90 198q0 133 113.5 207t340.5 74h92q0 51 -6 94t-28 74.5t-65 49.5t-117 18q-109 0 -163.5 -34t-64.5 -103h-79q12 110 86 163.5t220 53.5q81 0 137.5 -20t92 -57.5t51.5 -91t16 -120.5v-506h-80v100q-41 -36 -80 -59.5t-76.5 -37t-74.5 -18.5t-75 -5q-51 0 -95 15.5 t-76 44t-50.5 69t-18.5 89.5zM170 206q0 -69 54 -107.5t148 -38.5q41 0 79.5 12.5t72.5 32.5t62.5 44.5t49.5 47.5v202h-121q-174 0 -259.5 -50t-85.5 -143zM307 850l89 186h146l-146 -186h-89z" />
<glyph unicode="&#xe2;" vert-adv-y="2191" d="M90 198q0 133 113.5 207t340.5 74h92q0 51 -6 94t-28 74.5t-65 49.5t-117 18q-109 0 -163.5 -34t-64.5 -103h-79q12 110 86 163.5t220 53.5q81 0 137.5 -20t92 -57.5t51.5 -91t16 -120.5v-506h-80v100q-41 -36 -80 -59.5t-76.5 -37t-74.5 -18.5t-75 -5q-51 0 -95 15.5 t-76 44t-50.5 69t-18.5 89.5zM170 206q0 -69 54 -107.5t148 -38.5q41 0 79.5 12.5t72.5 32.5t62.5 44.5t49.5 47.5v202h-121q-174 0 -259.5 -50t-85.5 -143zM236 850l146 185h86l146 -185h-115l-75 111l-74 -111h-114z" />
<glyph unicode="&#xe3;" vert-adv-y="2191" d="M90 198q0 133 113.5 207t340.5 74h92q0 51 -6 94t-28 74.5t-65 49.5t-117 18q-109 0 -163.5 -34t-64.5 -103h-79q12 110 86 163.5t220 53.5q81 0 137.5 -20t92 -57.5t51.5 -91t16 -120.5v-506h-80v100q-41 -36 -80 -59.5t-76.5 -37t-74.5 -18.5t-75 -5q-51 0 -95 15.5 t-76 44t-50.5 69t-18.5 89.5zM170 206q0 -69 54 -107.5t148 -38.5q41 0 79.5 12.5t72.5 32.5t62.5 44.5t49.5 47.5v202h-121q-174 0 -259.5 -50t-85.5 -143zM213 850q0 71 33.5 104t90.5 33q14 0 40 -9t53.5 -19.5t50.5 -19.5t31 -9q21 0 37 20.5t16 52.5h71 q0 -72 -33 -111.5t-91 -39.5q-15 0 -41.5 8.5t-54 19t-50 19t-29.5 8.5q-28 0 -39 -14t-14 -43h-71z" />
<glyph unicode="&#xe4;" vert-adv-y="2191" d="M90 198q0 133 113.5 207t340.5 74h92q0 51 -6 94t-28 74.5t-65 49.5t-117 18q-109 0 -163.5 -34t-64.5 -103h-79q12 110 86 163.5t220 53.5q81 0 137.5 -20t92 -57.5t51.5 -91t16 -120.5v-506h-80v100q-41 -36 -80 -59.5t-76.5 -37t-74.5 -18.5t-75 -5q-51 0 -95 15.5 t-76 44t-50.5 69t-18.5 89.5zM170 206q0 -69 54 -107.5t148 -38.5q41 0 79.5 12.5t72.5 32.5t62.5 44.5t49.5 47.5v202h-121q-174 0 -259.5 -50t-85.5 -143zM256 850v111h108v-111h-108zM487 850v111h106v-111h-106z" />
<glyph unicode="&#xe5;" vert-adv-y="2191" d="M90 198q0 133 113.5 207t340.5 74h92q0 51 -6 94t-28 74.5t-65 49.5t-117 18q-109 0 -163.5 -34t-64.5 -103h-79q12 110 86 163.5t220 53.5q81 0 137.5 -20t92 -57.5t51.5 -91t16 -120.5v-506h-80v100q-41 -36 -80 -59.5t-76.5 -37t-74.5 -18.5t-75 -5q-51 0 -95 15.5 t-76 44t-50.5 69t-18.5 89.5zM170 206q0 -69 54 -107.5t148 -38.5q41 0 79.5 12.5t72.5 32.5t62.5 44.5t49.5 47.5v202h-121q-174 0 -259.5 -50t-85.5 -143zM300 928q0 26 10.5 49t28 40.5t41 27.5t49.5 10t48.5 -10.5t39.5 -28t27 -40.5t10 -48q0 -27 -10 -50t-27 -40.5 t-39.5 -27.5t-48.5 -10t-49.5 10t-41 27t-28 40.5t-10.5 50.5zM350 928q0 -32 23 -55.5t56 -23.5q16 0 29.5 6.5t24 17t16.5 25t6 30.5q0 32 -22 55t-54 23q-33 0 -56 -23t-23 -55z" />
<glyph unicode="&#xe6;" horiz-adv-x="1410" vert-adv-y="2191" d="M90 198q0 133 113.5 207t340.5 74h92q0 51 -6 94t-28 74.5t-65 49.5t-117 18q-109 0 -163.5 -34t-64.5 -103h-79q12 110 86 163.5t220 53.5q115 0 181 -40t94 -112q45 73 117 112.5t164 39.5q79 0 143 -28t109 -80.5t69 -128t24 -170.5v-18h-604v-11q0 -70 22 -125.5 t59.5 -94t87 -59t105.5 -20.5q40 0 80 9.5t72.5 28.5t54.5 47t26 64h79q-11 -55 -39 -97.5t-69 -72t-93 -44.5t-111 -15q-100 0 -177 41.5t-124 120.5q-43 -43 -81.5 -74t-79.5 -50.5t-89 -28.5t-109 -9q-51 0 -95 15.5t-76 44t-50.5 69t-18.5 89.5zM170 206 q0 -69 54 -107.5t148 -38.5q38 0 77 12.5t76 33.5t71 49t61 58q-27 76 -27 176v10h-115q-174 0 -259.5 -50t-85.5 -143zM716 450h523q-20 133 -90.5 199t-173.5 66q-50 0 -95.5 -17.5t-81 -51.5t-57.5 -83t-25 -113z" />
<glyph unicode="&#xe7;" horiz-adv-x="764" vert-adv-y="2191" d="M84 388q0 96 24.5 172t70 128t109 79.5t141.5 27.5q56 0 104.5 -15t86 -44t63 -72t35.5 -98h-78q-5 36 -22.5 64t-45.5 47t-64.5 28.5t-78.5 9.5q-59 0 -108 -20.5t-84 -61.5t-54 -102.5t-19 -142.5q0 -82 19 -143.5t54 -102.5t84 -61.5t108 -20.5q39 0 75 9.5t64.5 28 t47.5 46t24 64.5h78q-11 -56 -36.5 -98.5t-63 -71.5t-86 -43.5t-103.5 -14.5q-77 0 -140.5 27t-109 79t-70.5 128t-25 174zM293 -233q20 -2 39.5 -3.5t38.5 -1.5q46 0 71.5 13.5t25.5 50.5q0 27 -28 41.5t-78 14.5v97h80v-49q61 -8 83.5 -35t22.5 -69q0 -29 -8 -53.5 t-28.5 -43t-56 -29t-89.5 -10.5q-33 0 -73 3v74z" />
<glyph unicode="&#xe8;" vert-adv-y="2191" d="M80 389q0 94 25 169.5t71 128t109 80.5t140 28q79 0 143 -28t109 -80.5t69 -128t24 -170.5v-18h-610q6 -79 29 -137t60 -96.5t85.5 -57.5t105.5 -19q40 0 80 9.5t72.5 28.5t54.5 47t26 64h79q-11 -55 -39 -97.5t-69 -72t-93 -44.5t-111 -15q-81 0 -147 27.5t-113.5 80 t-73.5 128.5t-26 173zM160 450h529q-20 133 -90.5 199t-173.5 66q-51 0 -95 -16t-78.5 -49t-58 -83t-33.5 -117zM307 1036h146l89 -186h-89z" />
<glyph unicode="&#xe9;" vert-adv-y="2191" d="M80 389q0 94 25 169.5t71 128t109 80.5t140 28q79 0 143 -28t109 -80.5t69 -128t24 -170.5v-18h-610q6 -79 29 -137t60 -96.5t85.5 -57.5t105.5 -19q40 0 80 9.5t72.5 28.5t54.5 47t26 64h79q-11 -55 -39 -97.5t-69 -72t-93 -44.5t-111 -15q-81 0 -147 27.5t-113.5 80 t-73.5 128.5t-26 173zM160 450h529q-20 133 -90.5 199t-173.5 66q-51 0 -95 -16t-78.5 -49t-58 -83t-33.5 -117zM307 850l89 186h146l-146 -186h-89z" />
<glyph unicode="&#xea;" vert-adv-y="2191" d="M80 389q0 94 25 169.5t71 128t109 80.5t140 28q79 0 143 -28t109 -80.5t69 -128t24 -170.5v-18h-610q6 -79 29 -137t60 -96.5t85.5 -57.5t105.5 -19q40 0 80 9.5t72.5 28.5t54.5 47t26 64h79q-11 -55 -39 -97.5t-69 -72t-93 -44.5t-111 -15q-81 0 -147 27.5t-113.5 80 t-73.5 128.5t-26 173zM160 450h529q-20 133 -90.5 199t-173.5 66q-51 0 -95 -16t-78.5 -49t-58 -83t-33.5 -117zM236 850l146 185h86l146 -185h-115l-75 111l-74 -111h-114z" />
<glyph unicode="&#xeb;" vert-adv-y="2191" d="M80 389q0 94 25 169.5t71 128t109 80.5t140 28q79 0 143 -28t109 -80.5t69 -128t24 -170.5v-18h-610q6 -79 29 -137t60 -96.5t85.5 -57.5t105.5 -19q40 0 80 9.5t72.5 28.5t54.5 47t26 64h79q-11 -55 -39 -97.5t-69 -72t-93 -44.5t-111 -15q-81 0 -147 27.5t-113.5 80 t-73.5 128.5t-26 173zM160 450h529q-20 133 -90.5 199t-173.5 66q-51 0 -95 -16t-78.5 -49t-58 -83t-33.5 -117zM256 850v111h108v-111h-108zM487 850v111h106v-111h-106z" />
<glyph unicode="&#xec;" horiz-adv-x="348" vert-adv-y="2191" d="M17 1036h146l89 -186h-89zM137 0v775h80v-775h-80z" />
<glyph unicode="&#xed;" horiz-adv-x="348" vert-adv-y="2191" d="M90 850l89 186h146l-146 -186h-89zM137 0v775h80v-775h-80z" />
<glyph unicode="&#xee;" horiz-adv-x="348" vert-adv-y="2191" d="M-13 850l146 185h86l146 -185h-115l-75 111l-74 -111h-114zM137 0v775h80v-775h-80z" />
<glyph unicode="&#xef;" horiz-adv-x="348" vert-adv-y="2191" d="M6 850v111h108v-111h-108zM137 0v775h80v-775h-80zM237 850v111h106v-111h-106z" />
<glyph unicode="&#xf0;" vert-adv-y="2191" d="M71 382q0 95 26.5 168t74 123t114 75.5t146.5 25.5q29 0 69.5 -8t91.5 -34q-26 55 -63 104.5t-77 94.5q-41 -20 -87.5 -42t-90.5 -42q-8 14 -15 26.5t-13 24.5l162 75q-30 29 -63.5 57t-77.5 59h119q30 -23 52 -42t42 -40q35 17 77.5 36.5t80.5 37.5q8 -14 15 -28t13 -25 l-139 -67q138 -156 195 -291q56 -133 56 -288q0 -94 -25 -168.5t-71.5 -126.5t-111.5 -79.5t-146 -27.5q-80 0 -145 27t-111.5 79t-72 126.5t-25.5 169.5zM154 382q0 -77 21 -137t58 -101t86.5 -62.5t105.5 -21.5q55 0 104.5 21.5t86 62.5t58 101t21.5 137q0 76 -21.5 134 t-58 96.5t-86 58t-104.5 19.5q-56 0 -105.5 -19.5t-86.5 -58t-58 -96.5t-21 -134z" />
<glyph unicode="&#xf1;" vert-adv-y="2191" d="M125 0v775h80v-115q39 46 76.5 73t73 41t67.5 17.5t60 3.5q239 0 239 -282v-513h-80v506q0 54 -9.5 93.5t-31 65t-56 38t-84.5 12.5q-66 0 -129.5 -39t-125.5 -110v-566h-80zM213 850q0 71 33.5 104t90.5 33q14 0 40 -9t53.5 -19.5t50.5 -19.5t31 -9q21 0 37 20.5 t16 52.5h71q0 -72 -33 -111.5t-91 -39.5q-15 0 -41.5 8.5t-54 19t-50 19t-29.5 8.5q-28 0 -39 -14t-14 -43h-71z" />
<glyph unicode="&#xf2;" vert-adv-y="2191" d="M80 389q0 96 24.5 171.5t69.5 127.5t109 79.5t142 27.5q79 0 143 -27.5t109 -80t69 -128t24 -170.5q0 -97 -24.5 -173t-69.5 -128.5t-109 -80t-142 -27.5t-141.5 27t-108.5 79.5t-70 128.5t-25 174zM160 389q0 -82 19 -143.5t54 -103t83.5 -62t108.5 -20.5 q59 0 107.5 20.5t83.5 62t54.5 103t19.5 143.5q0 81 -19.5 142.5t-54.5 102t-83.5 61t-107.5 20.5q-60 0 -108.5 -20.5t-83.5 -61t-54 -102t-19 -142.5zM307 1036h146l89 -186h-89z" />
<glyph unicode="&#xf3;" vert-adv-y="2191" d="M80 389q0 96 24.5 171.5t69.5 127.5t109 79.5t142 27.5q79 0 143 -27.5t109 -80t69 -128t24 -170.5q0 -97 -24.5 -173t-69.5 -128.5t-109 -80t-142 -27.5t-141.5 27t-108.5 79.5t-70 128.5t-25 174zM160 389q0 -82 19 -143.5t54 -103t83.5 -62t108.5 -20.5 q59 0 107.5 20.5t83.5 62t54.5 103t19.5 143.5q0 81 -19.5 142.5t-54.5 102t-83.5 61t-107.5 20.5q-60 0 -108.5 -20.5t-83.5 -61t-54 -102t-19 -142.5zM307 850l89 186h146l-146 -186h-89z" />
<glyph unicode="&#xf4;" vert-adv-y="2191" d="M80 389q0 96 24.5 171.5t69.5 127.5t109 79.5t142 27.5q79 0 143 -27.5t109 -80t69 -128t24 -170.5q0 -97 -24.5 -173t-69.5 -128.5t-109 -80t-142 -27.5t-141.5 27t-108.5 79.5t-70 128.5t-25 174zM160 389q0 -82 19 -143.5t54 -103t83.5 -62t108.5 -20.5 q59 0 107.5 20.5t83.5 62t54.5 103t19.5 143.5q0 81 -19.5 142.5t-54.5 102t-83.5 61t-107.5 20.5q-60 0 -108.5 -20.5t-83.5 -61t-54 -102t-19 -142.5zM236 850l146 185h86l146 -185h-115l-75 111l-74 -111h-114z" />
<glyph unicode="&#xf5;" vert-adv-y="2191" d="M80 389q0 96 24.5 171.5t69.5 127.5t109 79.5t142 27.5q79 0 143 -27.5t109 -80t69 -128t24 -170.5q0 -97 -24.5 -173t-69.5 -128.5t-109 -80t-142 -27.5t-141.5 27t-108.5 79.5t-70 128.5t-25 174zM160 389q0 -82 19 -143.5t54 -103t83.5 -62t108.5 -20.5 q59 0 107.5 20.5t83.5 62t54.5 103t19.5 143.5q0 81 -19.5 142.5t-54.5 102t-83.5 61t-107.5 20.5q-60 0 -108.5 -20.5t-83.5 -61t-54 -102t-19 -142.5zM213 850q0 71 33.5 104t90.5 33q14 0 40 -9t53.5 -19.5t50.5 -19.5t31 -9q21 0 37 20.5t16 52.5h71q0 -72 -33 -111.5 t-91 -39.5q-15 0 -41.5 8.5t-54 19t-50 19t-29.5 8.5q-28 0 -39 -14t-14 -43h-71z" />
<glyph unicode="&#xf6;" vert-adv-y="2191" d="M80 389q0 96 24.5 171.5t69.5 127.5t109 79.5t142 27.5q79 0 143 -27.5t109 -80t69 -128t24 -170.5q0 -97 -24.5 -173t-69.5 -128.5t-109 -80t-142 -27.5t-141.5 27t-108.5 79.5t-70 128.5t-25 174zM160 389q0 -82 19 -143.5t54 -103t83.5 -62t108.5 -20.5 q59 0 107.5 20.5t83.5 62t54.5 103t19.5 143.5q0 81 -19.5 142.5t-54.5 102t-83.5 61t-107.5 20.5q-60 0 -108.5 -20.5t-83.5 -61t-54 -102t-19 -142.5zM256 850v111h108v-111h-108zM487 850v111h106v-111h-106z" />
<glyph unicode="&#xf7;" horiz-adv-x="915" vert-adv-y="2191" d="M157 413v87h601v-87h-601zM393 177v135h134v-135h-134zM393 603v135h134v-135h-134z" />
<glyph unicode="&#xf8;" vert-adv-y="2191" d="M80 389q0 96 24.5 171.5t69.5 127.5t109 79.5t142 27.5q60 0 110.5 -16t91.5 -46l59 82l67 -42l-68 -95q42 -53 63.5 -125.5t21.5 -163.5q0 -97 -24.5 -173t-69.5 -128.5t-109 -80t-142 -27.5q-115 0 -197 58l-61 -85l-67 43l69 97q-43 52 -66 126t-23 170zM160 389 q0 -73 15 -129.5t43 -98.5l362 506q-32 23 -71 35.5t-84 12.5q-60 0 -108.5 -20.5t-83.5 -61t-54 -102t-19 -142.5zM275 104q31 -23 68.5 -33.5t81.5 -10.5q59 0 107.5 20.5t83.5 62t54.5 103t19.5 143.5q0 70 -14.5 124.5t-40.5 94.5z" />
<glyph unicode="&#xf9;" vert-adv-y="2191" d="M128 263v512h80v-505q0 -109 40.5 -159.5t140.5 -50.5q72 0 135.5 40t120.5 114v561h80v-775h-80v104q-29 -35 -65.5 -58.5t-74 -38t-74 -21t-65.5 -6.5q-238 0 -238 283zM307 1036h146l89 -186h-89z" />
<glyph unicode="&#xfa;" vert-adv-y="2191" d="M128 263v512h80v-505q0 -109 40.5 -159.5t140.5 -50.5q72 0 135.5 40t120.5 114v561h80v-775h-80v104q-29 -35 -65.5 -58.5t-74 -38t-74 -21t-65.5 -6.5q-238 0 -238 283zM307 850l89 186h146l-146 -186h-89z" />
<glyph unicode="&#xfb;" vert-adv-y="2191" d="M128 263v512h80v-505q0 -109 40.5 -159.5t140.5 -50.5q72 0 135.5 40t120.5 114v561h80v-775h-80v104q-29 -35 -65.5 -58.5t-74 -38t-74 -21t-65.5 -6.5q-238 0 -238 283zM236 850l146 185h86l146 -185h-115l-75 111l-74 -111h-114z" />
<glyph unicode="&#xfc;" vert-adv-y="2191" d="M128 263v512h80v-505q0 -109 40.5 -159.5t140.5 -50.5q72 0 135.5 40t120.5 114v561h80v-775h-80v104q-29 -35 -65.5 -58.5t-74 -38t-74 -21t-65.5 -6.5q-238 0 -238 283zM256 850v111h108v-111h-108zM487 850v111h106v-111h-106z" />
<glyph unicode="&#xfd;" horiz-adv-x="764" vert-adv-y="2191" d="M52 775h88l253 -676l232 676h87l-282 -789q-26 -70 -52.5 -123t-57.5 -89t-68.5 -54t-83.5 -18q-16 0 -31 1t-30 3v86q8 -1 17 -1h19q69 0 118 47.5t86 154.5zM264 850l89 186h146l-146 -186h-89z" />
<glyph unicode="&#xfe;" vert-adv-y="2191" d="M125 -285v1380h80v-435q38 46 73.5 73t68.5 41t63.5 18t59.5 4q72 0 128 -29t94 -81.5t58 -126.5t20 -164q0 -95 -23.5 -171.5t-65 -130.5t-98 -83.5t-122.5 -29.5q-28 0 -58 2.5t-62 12.5t-66 29.5t-70 52.5v-362h-80zM205 174q108 -114 248 -114q54 0 97.5 21.5 t74.5 63.5t48 104.5t17 145.5q0 158 -60.5 239t-170.5 81q-144 0 -254 -155v-386z" />
<glyph unicode="&#xff;" horiz-adv-x="764" vert-adv-y="2191" d="M52 775h88l253 -676l232 676h87l-282 -789q-26 -70 -52.5 -123t-57.5 -89t-68.5 -54t-83.5 -18q-16 0 -31 1t-30 3v86q8 -1 17 -1h19q69 0 118 47.5t86 154.5zM213 850v111h108v-111h-108zM444 850v111h106v-111h-106z" />
<glyph unicode="&#x152;" horiz-adv-x="1645" vert-adv-y="2191" d="M89 551q0 129 38.5 233t107.5 177.5t163.5 113.5t207.5 40q115 0 213 -43v23h764v-80h-684v-405h641v-80h-641v-450h711v-80h-791v23q-98 -43 -213 -43q-114 0 -209 41.5t-163.5 116.5t-106.5 180t-38 233zM173 551q0 -117 32 -208.5t89.5 -154.5t137 -95.5t173.5 -32.5 q119 0 214 52v873q-46 25 -99.5 37.5t-111.5 12.5q-95 0 -174.5 -32t-137.5 -93.5t-90.5 -151.5t-32.5 -207z" />
<glyph unicode="&#x153;" horiz-adv-x="1462" vert-adv-y="2191" d="M80 389q0 96 24.5 171.5t69.5 127.5t109 79.5t142 27.5q109 0 187 -51t119 -145q42 94 120.5 145t183.5 51q79 0 143 -28t109 -80.5t69 -128t24 -170.5v-18h-610q6 -79 29 -137t60 -96.5t85.5 -57.5t105.5 -19q40 0 80 9.5t72.5 28.5t54.5 47t26 64h79q-11 -55 -39 -97.5 t-69 -72t-93 -44.5t-111 -15q-111 0 -193.5 50.5t-125.5 146.5q-42 -96 -120 -146.5t-186 -50.5q-78 0 -141.5 27t-108.5 79.5t-70 128.5t-25 174zM160 389q0 -82 19 -143.5t54 -103t83.5 -62t108.5 -20.5q59 0 107.5 20.5t83.5 62t54.5 103t19.5 143.5q0 81 -19.5 142.5 t-54.5 102t-83.5 61t-107.5 20.5q-60 0 -108.5 -20.5t-83.5 -61t-54 -102t-19 -142.5zM770 450h529q-20 133 -90.5 199t-173.5 66q-51 0 -95 -16t-78.5 -49t-58 -83t-33.5 -117z" />
<glyph unicode="&#x178;" horiz-adv-x="1037" vert-adv-y="2191" d="M48 1095h94l378 -541l375 541h93l-428 -625v-470h-80v470zM350 1230v111h108v-111h-108zM581 1230v111h106v-111h-106z" />
<glyph unicode="&#x2c6;" horiz-adv-x="510" vert-adv-y="2191" d="M66 850l146 185h86l146 -185h-115l-75 111l-74 -111h-114z" />
<glyph unicode="&#x2dc;" horiz-adv-x="535" vert-adv-y="2191" d="M56 850q0 71 33.5 104t90.5 33q14 0 40 -9t53.5 -19.5t50.5 -19.5t31 -9q21 0 37 20.5t16 52.5h71q0 -72 -33 -111.5t-91 -39.5q-15 0 -41.5 8.5t-54 19t-50 19t-29.5 8.5q-28 0 -39 -14t-14 -43h-71z" />
<glyph unicode="&#x2000;" horiz-adv-x="708" vert-adv-y="0" />
<glyph unicode="&#x2001;" horiz-adv-x="1416" vert-adv-y="0" />
<glyph unicode="&#x2002;" horiz-adv-x="708" vert-adv-y="0" />
<glyph unicode="&#x2003;" horiz-adv-x="1416" vert-adv-y="0" />
<glyph unicode="&#x2004;" horiz-adv-x="472" vert-adv-y="0" />
<glyph unicode="&#x2005;" horiz-adv-x="354" vert-adv-y="0" />
<glyph unicode="&#x2006;" horiz-adv-x="236" vert-adv-y="0" />
<glyph unicode="&#x2007;" horiz-adv-x="236" vert-adv-y="0" />
<glyph unicode="&#x2008;" horiz-adv-x="177" vert-adv-y="0" />
<glyph unicode="&#x2009;" horiz-adv-x="283" vert-adv-y="0" />
<glyph unicode="&#x200a;" horiz-adv-x="78" vert-adv-y="0" />
<glyph unicode="&#x2010;" horiz-adv-x="915" vert-adv-y="2191" d="M157 413v87h601v-87h-601z" />
<glyph unicode="&#x2011;" horiz-adv-x="915" vert-adv-y="2191" d="M157 413v87h601v-87h-601z" />
<glyph unicode="&#x2012;" horiz-adv-x="915" vert-adv-y="2191" d="M157 413v87h601v-87h-601z" />
<glyph unicode="&#x2013;" horiz-adv-x="793" vert-adv-y="2191" d="M-2 548v80h799v-80h-799z" />
<glyph unicode="&#x2014;" horiz-adv-x="1296" vert-adv-y="2191" d="M-2 546v80h1301v-80h-1301z" />
<glyph unicode="&#x2018;" horiz-adv-x="457" vert-adv-y="2191" d="M171 763v146q0 94 37 150t109 56v-68q-71 0 -71 -138h71v-146h-146z" />
<glyph unicode="&#x2019;" horiz-adv-x="457" vert-adv-y="2191" d="M171 743v68q71 0 71 138h-71v146h146v-146q0 -94 -37 -150t-109 -56z" />
<glyph unicode="&#x201a;" horiz-adv-x="406" vert-adv-y="2191" d="M130 0v146h146v-146q0 -94 -37 -150t-109 -56v68q71 0 71 138h-71z" />
<glyph unicode="&#x201c;" horiz-adv-x="711" vert-adv-y="2191" d="M171 763v146q0 94 37 150t109 56v-68q-71 0 -71 -138h71v-146h-146zM427 763v146q0 94 37 150t109 56v-68q-71 0 -71 -138h71v-146h-146z" />
<glyph unicode="&#x201d;" horiz-adv-x="711" vert-adv-y="2191" d="M171 743v68q71 0 71 138h-71v146h146v-146q0 -94 -37 -150t-109 -56zM427 743v68q71 0 71 138h-71v146h146v-146q0 -94 -37 -150t-109 -56z" />
<glyph unicode="&#x201e;" horiz-adv-x="572" vert-adv-y="2191" d="M103 0v146h146v-146q0 -94 -37 -150t-109 -56v68q71 0 71 138h-71zM323 0v146h146v-146q0 -94 -37 -150t-109 -56v68q72 0 72 138h-72z" />
<glyph unicode="&#x2022;" horiz-adv-x="406" vert-adv-y="2191" d="M81 556q0 24 9.5 45.5t26 37.5t37.5 25.5t45 9.5t45.5 -9.5t37 -25.5t25 -37.5t9.5 -45.5t-9 -45.5t-25 -38t-37.5 -26t-45.5 -9.5t-45.5 9.5t-37.5 25.5t-25.5 38t-9.5 46z" />
<glyph unicode="&#x2026;" horiz-adv-x="1293" vert-adv-y="2191" d="M132 77q0 32 22.5 54.5t54.5 22.5t55 -22.5t23 -54.5q0 -33 -23 -55t-55 -22t-54.5 22t-22.5 55zM570 77q0 32 22 54.5t55 22.5q32 0 54.5 -22.5t22.5 -54.5q0 -33 -22.5 -55t-54.5 -22q-33 0 -55 22t-22 55zM1007 77q0 32 22.5 54.5t55.5 22.5q31 0 53.5 -22.5 t22.5 -54.5q0 -33 -22.5 -55t-53.5 -22q-33 0 -55.5 22t-22.5 55z" />
<glyph unicode="&#x202f;" horiz-adv-x="283" vert-adv-y="0" />
<glyph unicode="&#x2039;" horiz-adv-x="487" vert-adv-y="2191" d="M64 377l227 326h86l-186 -326l186 -326h-86z" />
<glyph unicode="&#x203a;" horiz-adv-x="487" vert-adv-y="2191" d="M110 51l186 326l-186 326h85l227 -326l-227 -326h-85z" />
<glyph unicode="&#x205f;" horiz-adv-x="354" vert-adv-y="0" />
<glyph unicode="&#x20ac;" horiz-adv-x="919" vert-adv-y="2191" d="M21 399v80h83q-1 12 -1.5 29t-0.5 44q0 26 1 45.5t2 30.5h-84v79h86q11 108 39.5 184t71 124t98.5 70t122 22q138 0 217 -81.5t102 -236.5h-80q-7 57 -28 101.5t-52.5 74.5t-72 46t-86.5 16q-48 0 -89.5 -16.5t-73 -54t-53 -98.5t-30.5 -151h234q-2 -8 -3.5 -19.5l-3 -23 t-3 -22t-2.5 -14.5h-225q-1 -11 -1.5 -30.5t-0.5 -45.5q0 -27 0.5 -44t1.5 -29h208q-2 -7 -3.5 -18.5t-3 -23.5t-3 -22.5t-2.5 -15.5h-193q18 -175 83.5 -257t162.5 -82t160.5 63t78.5 196h80q-20 -170 -96.5 -254.5t-222.5 -84.5q-147 0 -227 103.5t-104 315.5h-86z" />
<glyph unicode="&#x2122;" horiz-adv-x="999" vert-adv-y="2191" d="M35 1010v85h374v-85h-139v-425h-96v425h-139zM468 585v510h140l88 -393l89 393h140v-510h-88v416l-96 -416h-88l-96 416v-416h-89z" />
<glyph unicode="&#x25fc;" horiz-adv-x="775" vert-adv-y="1550" d="M0 0v775h775v-775h-775z" />
</font>
</defs>
</svg>
